<?xml version="1.0" standalone="no"?>
<!DOCTYPE svg PUBLIC "-//W3C//DTD SVG 1.1//EN" "http://www.w3.org/Graphics/SVG/1.1/DTD/svg11.dtd" >
<svg xmlns="http://www.w3.org/2000/svg">
<metadata></metadata>
<defs>
<font id="nanumsquarerregular" horiz-adv-x="910" >
<font-face units-per-em="1000" ascent="800" descent="-200" />
<missing-glyph horiz-adv-x="250" />
<glyph unicode=" "  horiz-adv-x="250" />
<glyph unicode="&#x09;" horiz-adv-x="250" />
<glyph unicode="&#xa0;" horiz-adv-x="250" />
<glyph unicode="!" horiz-adv-x="280" d="M92 44h96v-98h-96v98zM111 148l-12 566h82l-12 -566h-58z" />
<glyph unicode="&#x22;" horiz-adv-x="373" d="M86 488l-10 242h78l-10 -242h-58zM229 488l-10 242h78l-10 -242h-58z" />
<glyph unicode="#" horiz-adv-x="585" d="M521 255v-61h-118l-31 -220h-57l31 220h-142l-30 -220h-58l31 220h-109v61h117l23 164h-109v61h118l30 215h57l-30 -215h141l30 215h58l-31 -215h110v-61h-118l-23 -164h110zM377 419h-142l-23 -164h142z" />
<glyph unicode="$" horiz-adv-x="604" d="M277 -18q-65 3 -121.5 24t-100.5 55l36 55q48 -35 94.5 -52.5t91.5 -20.5v270q-58 13 -98 30.5t-64.5 39.5t-35.5 49t-11 59v22q0 77 57 122.5t152 51.5v64h55v-64q60 -4 106.5 -21t80.5 -40l-34 -50q-29 20 -67.5 32.5t-85.5 16.5v-256q61 -15 102 -33t66.5 -40.5 t36.5 -50t11 -62.5v-22q0 -36 -14.5 -67t-42.5 -54.5t-68 -38t-91 -18.5v-76h-55v75zM479 181q0 20 -6.5 37t-23 32t-45 27.5t-72.5 23.5v-257q70 8 108.5 40t38.5 77v20zM137 494q0 -20 7 -36t23 -29.5t43 -25t67 -21.5v243q-61 -5 -100.5 -34.5t-39.5 -79.5v-17z" />
<glyph unicode="%" horiz-adv-x="869" d="M187 -25l431 720h63l-430 -720h-64zM644 343q73 0 114 -43.5t41 -122.5v-45q0 -79 -41 -122.5t-114 -43.5t-114 43.5t-41 122.5v45q0 79 41 122.5t114 43.5zM644 17q44 0 70.5 27t26.5 90v41q0 63 -26.5 90t-70.5 27t-70.5 -27t-26.5 -90v-41q0 -63 26.5 -90t70.5 -27z M225 703q73 0 114 -43.5t41 -122.5v-45q0 -79 -41 -122.5t-114 -43.5t-114 43.5t-41 122.5v45q0 79 41 122.5t114 43.5zM225 377q44 0 70.5 27t26.5 90v41q0 63 -26.5 90t-70.5 27t-70.5 -27t-26.5 -90v-41q0 -63 26.5 -90t70.5 -27z" />
<glyph unicode="&#x26;" horiz-adv-x="664" d="M607 347q0 -74 -18 -135.5t-52 -110.5l108 -127h-80l-68 80q-45 -48 -104.5 -69.5t-119.5 -21.5h-6q-45 0 -87 12t-74 34.5t-51 55.5t-19 75v24q0 34 10 62t32 52.5t57.5 48.5t87.5 50l-19 23q-12 15 -26 31.5t-26 35.5t-19.5 40t-7.5 44v18q0 24 11 48.5t33 44t54.5 32 t74.5 12.5q40 0 72 -12.5t54.5 -32t34.5 -44t12 -48.5v-19q0 -24 -7.5 -47t-25.5 -46.5t-47.5 -47.5t-73.5 -49l178 -210q23 38 35 88t12 109h65zM271 23q57 0 104.5 20t82.5 58l-195 229q-41 -22 -71 -41t-50 -38.5t-29.5 -41t-9.5 -49.5v-17q0 -24 12.5 -46t35 -38.5 t53.5 -26t67 -9.5zM190 554q0 -18 8.5 -37t21.5 -38t28.5 -38t29.5 -36q41 22 66.5 42t39 38.5t18 35.5t4.5 33v11q0 18 -8.5 33t-23.5 26t-34.5 17.5t-41.5 6.5t-41.5 -6.5t-34.5 -17.5t-23.5 -26t-8.5 -33v-11z" />
<glyph unicode="'" horiz-adv-x="230" d="M86 488l-10 242h78l-10 -242h-58z" />
<glyph unicode="(" horiz-adv-x="313" d="M151 274q0 -114 30 -226t107 -218h-64q-75 89 -111 202t-36 247v40q0 134 36 246t111 201h64q-74 -100 -105.5 -210.5t-31.5 -231.5v-50z" />
<glyph unicode=")" horiz-adv-x="313" d="M162 324q0 121 -31.5 231.5t-105.5 210.5h64q75 -89 111 -201t36 -246v-40q0 -134 -36 -247t-111 -202h-64q77 106 107 218t30 226v50z" />
<glyph unicode="*" horiz-adv-x="459" d="M76 408l-31 57l142 69l-142 68l31 57l127 -83l-6 153h66l-7 -153l128 83l30 -57l-142 -68l142 -69l-30 -57l-128 83l7 -152h-66l7 152z" />
<glyph unicode="+" horiz-adv-x="600" d="M333 568v-217h213v-64h-213v-231h-66v231h-213v64h213v217h66z" />
<glyph unicode="," horiz-adv-x="245" d="M89 50h88l-72 -225h-58z" />
<glyph unicode="-" horiz-adv-x="412" d="M50 366h312v-64h-312v64z" />
<glyph unicode="." horiz-adv-x="245" d="M72 45h101v-100h-101v100z" />
<glyph unicode="/" horiz-adv-x="389" d="M379 759l-302 -884h-67l301 884h68z" />
<glyph unicode="0" horiz-adv-x="600" d="M545 279q0 -153 -58 -234.5t-188 -81.5q-128 0 -186 82t-58 234v112q0 151 59 233t185 82q128 0 187 -81.5t59 -233.5v-112zM473 392q0 134 -43.5 192.5t-130.5 58.5q-83 0 -127.5 -59t-44.5 -192v-114q0 -134 44.5 -193t127.5 -59q86 0 130 58.5t44 193.5v114z" />
<glyph unicode="1" horiz-adv-x="600" d="M311 -26v633l-174 -106l-32 56l223 138h53v-721h-70z" />
<glyph unicode="2" horiz-adv-x="600" d="M346 349q30 35 48 60t27.5 44.5t13 34.5t3.5 29v8q0 54 -35.5 85.5t-101.5 31.5q-48 0 -90 -23t-77 -86l-56 35q13 23 32 47.5t46 44.5t62.5 33t80.5 13q48 0 87 -13t66 -36.5t42 -57t15 -73.5v-10q0 -29 -10 -56.5t-26.5 -53.5t-38.5 -52t-45 -53l-224 -263h370v-64 h-458v60z" />
<glyph unicode="3" horiz-adv-x="600" d="M84 594q13 22 32 42t44.5 35.5t58 25t73.5 9.5q49 0 88.5 -13t67 -36.5t42.5 -57t15 -73.5v-10q0 -21 -6 -44.5t-20 -45.5t-38 -41t-60 -31q75 -13 113.5 -59t38.5 -109v-15q0 -39 -13 -76t-41.5 -66.5t-75 -47.5t-112.5 -18q-63 0 -121.5 19.5t-109.5 60.5l35 56 q53 -38 99.5 -55t96.5 -17q47 0 80 13t53.5 33.5t30 46t9.5 50.5v13q0 41 -16.5 67.5t-41 42t-54 21.5t-55.5 6h-81v60h84q34 0 59 12.5t41.5 32.5t25 44.5t8.5 47.5v8q0 54 -37.5 85.5t-103.5 31.5q-43 0 -83 -17.5t-71 -66.5z" />
<glyph unicode="4" horiz-adv-x="600" d="M470 425v-227h106v-64h-106v-160h-70v160h-361v64l350 497h80l-349 -497h280v227h70z" />
<glyph unicode="5" horiz-adv-x="600" d="M475 191q0 87 -42.5 126.5t-120.5 39.5q-46 0 -82 -17t-60 -40h-66l23 395h371v-64h-309l-11 -262q24 23 65 37t86 14q53 0 93.5 -17.5t67.5 -47.5t40.5 -71.5t13.5 -89.5v-15q0 -39 -13 -77.5t-41.5 -69t-75.5 -50t-114 -19.5q-74 0 -130 21.5t-104 58.5l36 57 q52 -40 99.5 -56.5t98.5 -16.5q48 0 81.5 14.5t54.5 36.5t30 48.5t9 51.5v13z" />
<glyph unicode="6" horiz-adv-x="600" d="M483 600q-34 20 -72.5 31.5t-80.5 11.5q-51 0 -86 -20.5t-58 -59.5t-35 -95.5t-16 -128.5q8 16 23.5 34t38 33t52.5 24.5t68 9.5q46 0 87.5 -15t73 -43.5t50 -70t18.5 -94.5v-24q0 -53 -18 -95.5t-49.5 -72.5t-75 -46t-93.5 -16q-51 0 -95.5 17.5t-77.5 53.5t-52 91.5 t-19 130.5v24q0 116 18.5 197t52.5 132t83 74t111 23q49 0 96.5 -13t88.5 -36zM142 207q0 -41 12 -74t34 -57t52.5 -37t67.5 -13t68 11.5t53.5 33t35 53t12.5 72.5v15q0 40 -14 71.5t-37 53t-53.5 32.5t-63.5 11q-32 0 -62 -12t-53 -33t-37.5 -50.5t-14.5 -63.5v-13z" />
<glyph unicode="7" horiz-adv-x="600" d="M253 -26h-79l293 657h-405v64h483v-54z" />
<glyph unicode="8" horiz-adv-x="600" d="M159 511q0 -29 10 -55t28.5 -45t44.5 -30t58 -11t58 11t44.5 30t28.5 45t10 55v12q0 56 -38.5 88.5t-102.5 32.5q-65 0 -103 -32.5t-38 -88.5v-12zM139 159q0 -28 11 -52t32 -42t50.5 -28.5t67.5 -10.5t68 10.5t50.5 28.5t31.5 42t11 52v12q0 32 -12 58t-33 45t-50.5 29 t-65.5 10q-35 0 -64.5 -10t-51 -28.5t-33.5 -44.5t-12 -59v-12zM68 174q0 60 36.5 105.5t95.5 63.5q-52 24 -80.5 67t-28.5 100v16q0 39 15.5 72t43.5 57t66.5 37.5t83.5 13.5t83.5 -13.5t66.5 -37.5t43.5 -57t15.5 -72v-16q0 -57 -28.5 -100t-81.5 -67q29 -9 53.5 -25 t42 -38.5t27.5 -49t10 -56.5v-17q0 -43 -16.5 -79t-47 -61.5t-73.5 -39.5t-95 -14t-95 14t-73.5 39.5t-47 61.5t-16.5 79v17z" />
<glyph unicode="9" horiz-adv-x="600" d="M115 71q34 -20 73 -32t82 -12q55 0 92 20.5t59 59.5t32 95t12 126q-8 -16 -23 -34t-37.5 -33.5t-53 -26t-68.5 -10.5q-46 0 -87.5 15.5t-73 44.5t-50 70.5t-18.5 94.5v24q0 53 18 96t49.5 73.5t75 47t93.5 16.5t94.5 -17.5t77.5 -54t52.5 -92t19.5 -130.5v-30 q0 -119 -16.5 -199.5t-49.5 -129.5t-83 -69.5t-117 -20.5q-49 0 -95 13t-87 36zM458 459q0 40 -12 74t-34 58.5t-52.5 38t-67.5 13.5t-68 -12t-53.5 -34t-35 -54.5t-12.5 -72.5v-15q0 -41 14 -72.5t37 -53t53.5 -33t63.5 -11.5q31 0 61.5 12t53.5 34t37.5 51t14.5 64v13z " />
<glyph unicode=":" horiz-adv-x="305" d="M102 125h101v-100h-101v100zM102 567h101v-100h-101v100z" />
<glyph unicode=";" horiz-adv-x="305" d="M102 567h101v-100h-101v100zM119 130h88l-72 -225h-58z" />
<glyph unicode="&#x3c;" horiz-adv-x="600" d="M145 317l390 -203v-73l-470 250v59l470 250v-72l-390 -205v-6z" />
<glyph unicode="=" horiz-adv-x="600" d="M74 458h452v-65h-452v65zM74 247h452v-65h-452v65z" />
<glyph unicode="&#x3e;" horiz-adv-x="600" d="M455 323l-390 205v72l470 -250v-59l-470 -250v73l390 203v6z" />
<glyph unicode="?" horiz-adv-x="520" d="M188 44h96v-98h-96v98zM202 141v47q0 25 4.5 44.5t16 38.5t30 39.5t46.5 47.5q18 17 34.5 33t30 33.5t21.5 38t8 46.5v16q0 54 -36.5 85.5t-99.5 31.5q-51 0 -93 -20.5t-73 -55.5l-45 46q13 16 33 33t46.5 30.5t59 22t70.5 8.5q100 0 155 -49t55 -131v-17 q0 -37 -11.5 -65t-30 -51.5t-41.5 -44.5t-46 -43q-17 -16 -29 -29.5t-20.5 -27t-12.5 -29t-4 -34.5v-44h-68z" />
<glyph unicode="@" horiz-adv-x="983" d="M753 45q-20 0 -40 5t-38 15.5t-32 26.5t-21 39h-1q-9 -24 -27 -40t-39 -26t-42.5 -14t-39.5 -4q-93 0 -138.5 52t-45.5 143v76q0 92 47.5 143.5t135.5 51.5q51 0 83.5 -18.5t49.5 -45.5v58h71v-321q0 -42 23 -60.5t55 -18.5q25 0 45.5 10.5t35.5 33t23.5 59t8.5 87.5v11 q0 85 -24.5 153t-72.5 115.5t-120.5 73t-168.5 25.5q-82 0 -149.5 -26t-115.5 -74.5t-74 -119t-26 -159.5v-17q0 -93 25.5 -166t74.5 -123.5t121 -77t164 -26.5q77 0 149.5 16t135.5 49l28 -57q-63 -34 -141.5 -52.5t-168.5 -18.5q-105 0 -189 31.5t-143 90.5t-90.5 143.5 t-31.5 189.5v19q0 95 30 176t85.5 139.5t135.5 91.5t180 33q110 0 194.5 -31.5t141.5 -87.5t86.5 -134.5t29.5 -172.5v-13q0 -42 -8 -87t-28.5 -81.5t-55.5 -60.5t-88 -24zM362 254q0 -73 30 -106t88 -33q55 0 89 30.5t34 91.5v100q0 20 -8.5 39.5t-24 35t-38.5 25t-52 9.5 q-58 0 -88 -34t-30 -106v-52z" />
<glyph unicode="A" horiz-adv-x="658" d="M636 -26h-75l-80 224h-305l-82 -224h-72l268 721h79zM198 259h261l-70 195q-7 18 -13 35t-13 37.5t-15 46t-19 60.5q-10 -35 -18 -60.5t-15 -46t-13 -37.5t-13 -35z" />
<glyph unicode="B" horiz-adv-x="615" d="M83 695h230q229 0 229 -176v-21q0 -24 -6 -46.5t-19.5 -41.5t-36 -33.5t-54.5 -22.5q66 -10 107.5 -50t41.5 -115v-25q0 -89 -56.5 -139.5t-174.5 -50.5h-261v721zM152 36h186q85 0 125.5 32.5t40.5 96.5v22q0 33 -9 58t-31 42t-58 25.5t-90 8.5h-164v-285zM152 634v-254 h163q75 0 116 26t41 94v18q0 64 -39.5 90t-124.5 26h-156z" />
<glyph unicode="C" horiz-adv-x="630" d="M342 706q72 0 127.5 -18.5t100.5 -53.5l-36 -55q-49 35 -93 48t-99 13q-50 0 -88.5 -18.5t-64.5 -52t-39.5 -80t-13.5 -103.5v-92q0 -134 56.5 -199t156.5 -65q68 0 115.5 21.5t82.5 52.5l41 -55q-40 -36 -97 -61t-143 -25q-140 0 -211.5 87t-71.5 244v89 q0 154 72.5 238.5t204.5 84.5z" />
<glyph unicode="D" horiz-adv-x="668" d="M308 695q137 0 214.5 -79.5t77.5 -229.5v-103q0 -150 -77.5 -229.5t-214.5 -79.5h-225v721h225zM153 36h156q48 0 89 15t70 46.5t45.5 78.5t16.5 112v93q0 64 -16.5 111.5t-45.5 79t-70 46.5t-89 15h-156v-597z" />
<glyph unicode="E" horiz-adv-x="588" d="M517 695v-62h-364v-258h343v-62h-343v-277h371v-62h-441v721h434z" />
<glyph unicode="F" horiz-adv-x="561" d="M83 -26v721h428v-62h-358v-276h337v-62h-337v-321h-70z" />
<glyph unicode="G" horiz-adv-x="656" d="M345 706q76 0 132 -18.5t101 -53.5l-36 -55q-49 35 -94.5 48t-102.5 13q-52 0 -91 -18.5t-65.5 -52t-39.5 -80t-13 -103.5v-92q0 -264 223 -264q22 0 45.5 2t46 6.5t42.5 11.5t35 16v228h-170v62h238v-329q-47 -34 -107.5 -49t-132.5 -15q-149 0 -220 87t-71 244v89 q0 154 71.5 238.5t208.5 84.5z" />
<glyph unicode="H" horiz-adv-x="677" d="M524 315h-371v-341h-70v721h70v-310h371v310h70v-721h-70v341z" />
<glyph unicode="I" horiz-adv-x="236" d="M83 695h70v-721h-70v721z" />
<glyph unicode="J" horiz-adv-x="453" d="M303 695h70v-530q0 -60 -15 -99t-40.5 -62t-58.5 -32t-70 -9q-45 0 -89.5 12t-79.5 43l34 57q32 -26 64 -36t67 -10q64 0 91 34t27 109v523z" />
<glyph unicode="K" horiz-adv-x="644" d="M295 387l319 -413h-90l-279 362l-92 -95v-267h-70v721h70v-364l348 364h94z" />
<glyph unicode="L" horiz-adv-x="534" d="M153 695v-659h361v-62h-431v721h70z" />
<glyph unicode="M" horiz-adv-x="824" d="M188 502q-6 13 -11 22.5t-9 19.5t-8 21.5t-8 27.5v-619h-69v721h86l244 -528l245 528h83v-721h-69v619q-3 -16 -6.5 -27.5t-7.5 -21.5t-9 -19.5t-11 -22.5l-193 -408h-66z" />
<glyph unicode="N" horiz-adv-x="681" d="M83 695h83l331 -564q9 -15 16 -29.5t18 -37.5v631h67v-721h-83l-332 566q-9 16 -16 29t-17 36v-631h-67v721z" />
<glyph unicode="O" horiz-adv-x="692" d="M346 706q67 0 119 -22.5t88 -64.5t55 -101.5t19 -133.5v-99q0 -74 -19 -133.5t-55 -101.5t-88 -64.5t-119 -22.5t-119 22.5t-88 64.5t-55 101.5t-19 133.5v99q0 74 18.5 133.5t54.5 101.5t88.5 64.5t119.5 22.5zM346 26q97 0 153.5 67.5t56.5 197.5v87q0 130 -56.5 197.5 t-153.5 67.5t-153.5 -67.5t-56.5 -197.5v-87q0 -130 56.5 -197.5t153.5 -67.5z" />
<glyph unicode="P" horiz-adv-x="598" d="M83 695h244q57 0 100.5 -15.5t72.5 -43t43.5 -65.5t14.5 -82v-21q0 -44 -15.5 -82t-45 -66.5t-72.5 -44.5t-98 -16h-174v-285h-70v721zM153 632v-310h157q93 0 135 40t42 108v18q0 64 -40.5 104t-125.5 40h-168z" />
<glyph unicode="Q" horiz-adv-x="692" d="M346 706q67 0 119 -22.5t88 -64.5t55 -101.5t19 -133.5v-99q0 -146 -69 -230l84 -84l-45 -47l-87 87q-68 -48 -164 -48q-67 0 -119 22.5t-88 64.5t-55 101.5t-19 133.5v99q0 74 18.5 133.5t54.5 101.5t88.5 64.5t119.5 22.5zM346 26q67 0 115 33l-93 94l45 47l95 -95 q23 33 36 79.5t13 106.5v87q0 129 -57.5 197t-153.5 68t-153.5 -68t-57.5 -197v-87q0 -129 57.5 -197t153.5 -68z" />
<glyph unicode="R" horiz-adv-x="630" d="M360 286q-7 -1 -13.5 -1h-13.5h-180v-311h-70v721h249q54 0 96 -14.5t71.5 -41t44.5 -62.5t15 -78v-15q0 -66 -35 -113.5t-95 -69.5l145 -327h-75zM153 632v-284h158q94 0 135.5 36.5t41.5 102.5v10q0 63 -40.5 99t-125.5 36h-169z" />
<glyph unicode="S" horiz-adv-x="606" d="M302 28q42 0 75.5 10t57 27.5t35.5 40t12 46.5v21q0 25 -8 45t-29 36.5t-57.5 30t-94.5 26.5q-63 14 -105.5 32.5t-68 42t-36 52t-10.5 62.5v23q0 41 17.5 74.5t49 57.5t75 37.5t94.5 13.5q73 0 125 -17.5t89 -43.5l-33 -57q-35 25 -80 39.5t-101 14.5q-33 0 -63 -8 t-52.5 -23.5t-36 -37.5t-13.5 -50v-20q0 -23 8.5 -42t28 -34t52.5 -28t82 -24q70 -16 116 -34.5t73 -42.5t38 -54t11 -69v-23q0 -39 -17 -73t-48.5 -60t-78 -41t-104.5 -15q-72 0 -134.5 21.5t-110.5 58.5l36 59q54 -39 105.5 -56.5t100.5 -17.5z" />
<glyph unicode="T" horiz-adv-x="571" d="M551 695v-62h-231v-659h-70v659h-230v62h531z" />
<glyph unicode="U" horiz-adv-x="672" d="M336 26q94 0 140.5 60t46.5 195v414h69v-440q0 -150 -67.5 -221t-188.5 -71q-122 0 -189 71t-67 221v440h69v-414q0 -135 46.5 -195t140.5 -60z" />
<glyph unicode="V" horiz-adv-x="639" d="M22 695h77l222 -649h1l222 649h73l-258 -721h-80z" />
<glyph unicode="W" horiz-adv-x="958" d="M30 695h75l162 -646h1l172 646h79l172 -646h1l163 646h73l-199 -721h-80l-171 640l-171 -640h-80z" />
<glyph unicode="X" horiz-adv-x="641" d="M365 348l242 -374h-86l-201 327l-206 -327h-80l243 375l-231 346h82l196 -302l189 302h79z" />
<glyph unicode="Y" horiz-adv-x="602" d="M338 269v-295h-70v295l-248 426h79l205 -362l200 362h78z" />
<glyph unicode="Z" horiz-adv-x="597" d="M542 648l-430 -614h449v-60h-533v55l425 606h-401v60h490v-47z" />
<glyph unicode="[" horiz-adv-x="356" d="M318 -170h-235v936h235v-62h-168v-812h168v-62z" />
<glyph unicode="\" horiz-adv-x="947" d="M40 404h98l-70 291h67l64 -291h169l70 291h72l70 -291h170l66 291h64l-71 -291h98v-51h-111l-92 -379h-76l-91 379h-128l-91 -379h-76l-92 379h-110v51zM667 49h3l68 304h-145zM279 49h3l73 304h-144zM421 404h104l-52 216z" />
<glyph unicode="]" horiz-adv-x="356" d="M38 -108h168v812h-168v62h235v-936h-235v62z" />
<glyph unicode="^" horiz-adv-x="524" d="M404 401l-142 262l-142 -262h-70l180 323h65l179 -323h-70z" />
<glyph unicode="_" horiz-adv-x="480" d="M480 -130h-480v55h480v-55z" />
<glyph unicode="`" horiz-adv-x="600" d="M330 568l-124 141h83l105 -141h-64z" />
<glyph unicode="a" horiz-adv-x="533" d="M226 -34q-77 0 -125 41t-48 113v22q0 66 48 107t142 41h152v50q0 59 -32.5 90.5t-95.5 31.5q-44 0 -84 -15.5t-75 -39.5l-33 52q38 26 84.5 45t108.5 19q91 0 142.5 -45t51.5 -127v-377h-66v66h-1q-8 -13 -23.5 -26.5t-36.5 -24.5q-46 -23 -109 -23zM395 233h-151 q-65 0 -94 -26t-29 -68v-16q0 -26 10 -44.5t26.5 -30.5t37 -17.5t41.5 -5.5q32 0 58 8t50 23q22 14 36.5 34.5t14.5 51.5v91z" />
<glyph unicode="b" horiz-adv-x="579" d="M147 38v-64h-67v756h68v-293q24 41 67 63.5t94 22.5q48 0 87.5 -15.5t67.5 -45t43.5 -72.5t15.5 -98v-95q0 -55 -16 -98t-44.5 -72.5t-68 -45t-85.5 -15.5q-57 0 -98 21.5t-63 50.5h-1zM455 282q0 87 -40.5 133t-109.5 46q-28 0 -56 -10t-50.5 -29.5t-36.5 -47t-14 -63.5 v-158q0 -24 11.5 -46.5t32.5 -40.5t49.5 -29t63.5 -11q69 0 109.5 47.5t40.5 133.5v75z" />
<glyph unicode="c" horiz-adv-x="494" d="M278 523q57 0 100 -13.5t77 -39.5l-31 -53q-38 26 -73 35.5t-73 9.5q-72 0 -113 -47.5t-41 -132.5v-69q0 -89 42 -137t114 -48q56 0 92.5 15.5t65.5 37.5l32 -54q-15 -11 -33 -22t-41 -19.5t-52 -14t-65 -5.5q-106 0 -165 64.5t-59 182.5v67q0 59 16.5 104.5t45.5 76 t70 46.5t91 16z" />
<glyph unicode="d" horiz-adv-x="579" d="M432 45h-1q-23 -41 -68 -60t-92 -19t-86 15.5t-68 45t-45 72.5t-16 98v95q0 55 16 98t44.5 72.5t68 45t85.5 15.5q60 0 100 -23t61 -53v283h68v-756h-67v71zM124 207q0 -87 41 -134t109 -47q33 0 61.5 8.5t49.5 26t33.5 44t12.5 62.5v162q0 24 -11.5 47.5t-32.5 43 t-50 31.5t-63 12q-69 0 -109.5 -47.5t-40.5 -133.5v-75z" />
<glyph unicode="e" horiz-adv-x="545" d="M423 279v9q0 85 -39 130t-110 45q-72 0 -111.5 -47.5t-39.5 -127.5v-9h300zM479 27q-32 -23 -80 -42t-116 -19q-108 0 -168 64.5t-60 182.5v67q0 115 58.5 179t160.5 64q106 0 161.5 -65.5t55.5 -179.5v-56h-368v-9q0 -90 43 -138.5t118 -48.5q54 0 95 16t70 37z" />
<glyph unicode="f" horiz-adv-x="374" d="M124 455h-92v58h92v68q0 44 9 73.5t26.5 47.5t43.5 26t60 8q22 0 48.5 -3.5t42.5 -9.5l-10 -56q-36 10 -76 10q-41 0 -58.5 -22t-17.5 -77v-65h149v-58h-149v-481h-68v481z" />
<glyph unicode="g" horiz-adv-x="579" d="M430 55h-1q-23 -41 -67.5 -60t-91.5 -19t-86 15.5t-68 45t-45 72.5t-16 98v85q0 55 16 98t44.5 72.5t68 45t85.5 15.5q60 0 100.5 -23t61.5 -53v66h67v-530q0 -115 -59.5 -173.5t-160.5 -58.5q-57 0 -101.5 15t-78.5 41l31 53q19 -13 36 -21.5t34.5 -14t36.5 -7.5t42 -2 q75 0 113.5 40.5t38.5 125.5v74zM123 217q0 -87 41 -134t109 -47q33 0 61.5 8.5t49.5 26t33.5 44t12.5 62.5v152q0 24 -11.5 47.5t-32.5 43t-50 31.5t-63 12q-69 0 -109.5 -47.5t-40.5 -133.5v-65z" />
<glyph unicode="h" horiz-adv-x="582" d="M312 523q93 0 143.5 -50.5t50.5 -135.5v-363h-68v346q0 29 -6 54.5t-21.5 45t-42 30.5t-66.5 11q-34 0 -62.5 -12.5t-48.5 -32.5t-31.5 -44t-11.5 -48v-350h-68v756h68v-292q9 15 24 30.5t35.5 27.5t46.5 19.5t58 7.5z" />
<glyph unicode="i" horiz-adv-x="234" d="M83 513h68v-539h-68v539zM80 692h74v-76h-74v76z" />
<glyph unicode="j" horiz-adv-x="243" d="M89 692h74v-76h-74v76zM160 -92q0 -88 -35.5 -122.5t-103.5 -34.5q-22 0 -48.5 3.5t-42.5 9.5l10 56q36 -10 76 -10q41 0 58.5 23t17.5 78v602h68v-605z" />
<glyph unicode="k" horiz-adv-x="540" d="M283 306l235 -332h-83l-200 287l-87 -84v-203h-68v756h68v-472l260 255h91z" />
<glyph unicode="l" horiz-adv-x="228" d="M80 730h68v-756h-68v756z" />
<glyph unicode="m" horiz-adv-x="878" d="M625 523q92 0 134.5 -50t42.5 -136v-363h-68v345q0 33 -5.5 59t-19 44.5t-37 28.5t-59.5 10q-33 0 -58 -12t-42.5 -31t-27 -43t-10.5 -47v-354h-68v345q0 33 -5.5 59t-19 44.5t-37 28.5t-59.5 10q-33 0 -59 -12.5t-43.5 -32.5t-26.5 -44t-9 -48v-350h-68v539h67v-75 q9 16 22.5 31.5t32.5 27.5t42.5 19t53.5 7q65 0 105 -25.5t58 -72.5q9 17 23.5 34.5t35 31.5t47 23t58.5 9z" />
<glyph unicode="n" horiz-adv-x="582" d="M312 523q93 0 143.5 -50.5t50.5 -135.5v-363h-68v346q0 29 -6 54.5t-21.5 45t-42 30.5t-66.5 11q-34 0 -62.5 -12.5t-48.5 -32.5t-31.5 -44t-11.5 -48v-350h-68v539h67v-75q9 15 24 30.5t36 27.5t47 19.5t58 7.5z" />
<glyph unicode="o" horiz-adv-x="568" d="M284 523q109 0 169 -64t60 -181v-67q0 -117 -60 -181t-169 -64t-169 64t-60 181v67q0 118 60 181.5t169 63.5zM284 26q75 0 117.5 46.5t42.5 142.5v59q0 96 -42.5 142.5t-117.5 46.5t-117.5 -46.5t-42.5 -142.5v-59q0 -96 42.5 -142.5t117.5 -46.5z" />
<glyph unicode="p" horiz-adv-x="579" d="M148 38v-278h-68v753h67v-76q24 41 67.5 63.5t94.5 22.5q48 0 87.5 -15.5t67.5 -45t43.5 -72.5t15.5 -98v-95q0 -55 -16 -98t-44.5 -72.5t-68 -45t-85.5 -15.5q-57 0 -97.5 21.5t-62.5 50.5h-1zM455 282q0 87 -40.5 133t-109.5 46q-28 0 -56 -10t-50.5 -29.5t-36.5 -47 t-14 -63.5v-158q0 -24 11.5 -46.5t32.5 -40.5t49.5 -29t63.5 -11q69 0 109.5 47.5t40.5 133.5v75z" />
<glyph unicode="q" horiz-adv-x="579" d="M431 45h-1q-23 -41 -67.5 -60t-91.5 -19t-86 15.5t-68 45t-45 72.5t-16 98v95q0 55 16 98t44.5 72.5t68 45t85.5 15.5q60 0 100.5 -23t61.5 -53v66h67v-753h-68v285zM124 207q0 -87 41 -134t109 -47q33 0 61.5 8.5t49.5 26t33.5 44t12.5 62.5v162q0 24 -11.5 47.5 t-32.5 43t-50 31.5t-63 12q-69 0 -109.5 -47.5t-40.5 -133.5v-75z" />
<glyph unicode="r" horiz-adv-x="391" d="M358 443q-28 11 -65 11q-33 0 -60 -13t-46 -36t-29 -55t-10 -70v-306h-68v539h67v-95q9 19 22.5 38t33 34t44 24t55.5 9q23 0 41.5 -2.5t35.5 -8.5z" />
<glyph unicode="s" horiz-adv-x="495" d="M251 27q66 0 100 26t34 61v10q0 41 -33.5 62t-111.5 36q-41 8 -74 19t-56 28t-36 40.5t-13 56.5v14q0 29 12 55t36 45.5t60.5 31t86.5 11.5q62 0 107 -15.5t78 -40.5l-31 -51q-34 23 -69 35t-87 12q-61 0 -93 -24.5t-32 -59.5v-11q0 -35 35.5 -55t99.5 -32 q100 -19 144.5 -54t44.5 -100v-15q0 -32 -15 -59t-41.5 -46.5t-62.5 -30t-79 -10.5q-66 0 -117.5 17.5t-89.5 45.5l33 54q37 -25 79.5 -40.5t90.5 -15.5z" />
<glyph unicode="t" horiz-adv-x="388" d="M122 455h-92v58h92v139h68v-139h149v-58h-149v-328q0 -55 17.5 -77t58.5 -22q40 0 76 10l10 -56q-16 -6 -42.5 -9.5t-48.5 -3.5q-35 0 -61.5 8t-43.5 26t-25.5 47.5t-8.5 73.5v331z" />
<glyph unicode="u" horiz-adv-x="578" d="M264 -34q-92 0 -140 51t-48 135v361h68v-344q0 -29 5.5 -54.5t19.5 -45t39.5 -30.5t65.5 -11q34 0 62.5 12t49 31.5t32 43.5t11.5 48v350h68v-539h-67v75q-19 -31 -60.5 -57t-105.5 -26z" />
<glyph unicode="v" horiz-adv-x="501" d="M214 -26l-197 539h73l163 -469l160 469h71l-194 -539h-76z" />
<glyph unicode="w" horiz-adv-x="754" d="M167 -26l-147 539h69l119 -471l132 471h77l135 -471l116 471h66l-144 -539h-79l-134 463l-131 -463h-79z" />
<glyph unicode="x" horiz-adv-x="509" d="M297 253l190 -279h-79l-153 237l-158 -237h-75l192 279l-181 260h76l148 -220l147 220h74z" />
<glyph unicode="y" horiz-adv-x="505" d="M87 513l167 -463l164 463h70l-280 -762l-58 21l69 193l-202 548h70z" />
<glyph unicode="z" horiz-adv-x="488" d="M439 467l-329 -437h343v-56h-423v52l325 431h-305v56h389v-46z" />
<glyph unicode="{" horiz-adv-x="419" d="M38 343q55 1 80.5 20.5t25.5 62.5v201q0 74 33.5 106.5t110.5 32.5h93v-61h-84q-43 0 -64.5 -14.5t-21.5 -65.5v-192q0 -18 -2.5 -37t-10.5 -36t-23.5 -30.5t-41.5 -19.5q25 -6 40.5 -18.5t24 -29.5t11 -36.5t2.5 -38.5v-222q0 -26 5.5 -40.5t16.5 -22t27 -9.5t37 -2h84 v-61h-93q-77 0 -110.5 30t-33.5 103v230q0 44 -25.5 64t-80.5 21v65z" />
<glyph unicode="|" horiz-adv-x="281" d="M171 -170h-61v935h61v-935z" />
<glyph unicode="}" horiz-adv-x="419" d="M381 278q-55 -1 -80.5 -21t-25.5 -64v-230q0 -73 -33.5 -103t-110.5 -30h-93v61h84q21 0 37 2t27 9.5t16.5 22t5.5 40.5v222q0 19 2.5 38.5t11 36.5t23.5 29.5t41 18.5q-26 6 -41.5 19.5t-23.5 30.5t-10.5 36t-2.5 37v192q0 51 -21.5 65.5t-64.5 14.5h-84v61h93 q77 0 110.5 -32.5t33.5 -106.5v-201q0 -43 25.5 -62.5t80.5 -20.5v-65z" />
<glyph unicode="~" horiz-adv-x="600" d="M394 242q-36 0 -60 15.5t-44 33.5t-39.5 33.5t-45.5 15.5q-22 0 -36.5 -10.5t-23.5 -26t-13.5 -33t-6.5 -31.5h-62q4 33 15 62t28 51t41.5 35t57.5 13q36 0 60.5 -15.5t45 -33.5t39.5 -33.5t45 -15.5q22 0 36.5 9t23.5 23.5t13.5 32.5t6.5 36h62q-4 -33 -13.5 -62 t-26.5 -51t-42 -35t-61 -13z" />
<glyph unicode="&#x25fc;" horiz-adv-x="515" d="M0 515h515v-515h-515v515z" />
<glyph unicode="&#xac00;" d="M741 429h152v-63h-152v-502h-71v914h71v-349zM62 131q77 44 132 79t92.5 65.5t60.5 57.5t35 54.5t16 58.5t4 68v113h-330v64h399v-178q0 -68 -12.5 -118.5t-51.5 -98t-112.5 -99.5t-195.5 -123z" />
<glyph unicode="&#xac01;" d="M60 302q79 33 135.5 59.5t94.5 49t61 44t35 45t15.5 50t3.5 60.5v51h-314v62h383v-119q0 -42 -5.5 -75.5t-20.5 -61.5t-42 -53t-70 -51t-104.5 -54.5t-144.5 -64.5zM178 194h573v-337h-70v275h-503v62zM751 554h140v-62h-140v-244h-70v530h70v-224z" />
<glyph unicode="&#xac04;" d="M60 275q80 35 136.5 62.5t95 51t61 45t34 44.5t15 49t3.5 59v70h-314v62h383v-136q0 -41 -5 -73.5t-19 -60.5t-40.5 -54t-69 -53t-104.5 -57t-147 -67zM751 511h140v-62h-140v-325h-70v654h70v-267zM275 -63h504v-62h-575v298h71v-236z" />
<glyph unicode="&#xac07;" d="M200 210h554v-62h-484v-220h501v-62h-571v344zM60 306q79 33 135.5 59.5t94.5 49t61 44t35 45t15.5 50t3.5 60.5v47h-314v62h383v-115q0 -63 -13 -107t-54 -82t-117 -77t-201 -93zM751 555h140v-62h-140v-229h-70v514h70v-223z" />
<glyph unicode="&#xac08;" d="M751 270v-234h-482v-115h506v-60h-575v234h482v114h-487v61h556zM61 354q119 46 187.5 78t103.5 62.5t44 65t9 85.5v30h-314v62h383v-96q0 -43 -5.5 -76t-21 -61t-42.5 -52t-70 -48t-104 -50t-144 -58zM751 585h140v-62h-140v-199h-70v454h70v-193z" />
<glyph unicode="&#xac09;" d="M438 262v-229h-222v-112h117q19 0 42 1t47 2.5t46 3.5t39 4l5 -59q-38 -5 -88 -8.5t-104 -3.5h-170v230h222v111h-227v60h293zM61 354q119 46 187.5 78t103.5 62.5t44 65t9 85.5v30h-314v62h383v-96q0 -43 -5.5 -76t-21 -61t-42.5 -52t-70 -48t-104 -50t-144 -58z M751 585h140v-62h-140v-207h-70v462h70v-193zM751 262v-411h-69v350h-190v61h259z" />
<glyph unicode="&#xac0a;" d="M480 -139v401h271v-401h-271zM413 262v-229h-206v-112h51q19 0 42 1t47 2.5t46 3.5t39 4l5 -59q-38 -5 -89.5 -8.5t-102.5 -3.5h-104v230h206v111h-211v60h277zM61 354q119 46 187.5 78t103.5 62.5t44 65t9 85.5v30h-314v62h383v-96q0 -43 -5.5 -76t-21 -61t-42.5 -52 t-70 -48t-104 -50t-144 -58zM751 585h140v-62h-140v-207h-70v462h70v-193zM546 203v-283h139v283h-139z" />
<glyph unicode="&#xac10;" d="M202 214h549v-348h-549v348zM270 -71h413v222h-413v-222zM60 307q79 33 135.5 59.5t94.5 49t61 44t35 45t15.5 50t3.5 60.5v46h-314v62h383v-114q0 -42 -5.5 -75.5t-20.5 -61.5t-42 -53t-70 -51t-104.5 -54.5t-144.5 -64.5zM751 556h140v-62h-140v-226h-70v510h70v-222z " />
<glyph unicode="&#xac11;" d="M751 259v-394h-548v394h69v-129h410v129h69zM61 339q79 30 135.5 54.5t94.5 45.5t60.5 41.5t34.5 42.5t15.5 48t3.5 60v30h-314v62h383v-96q0 -43 -5.5 -76t-21 -61t-42.5 -52t-70 -48.5t-104 -50.5t-144 -58zM682 -72v140h-410v-140h410zM751 571h140v-62h-140v-196h-70 v465h70v-207z" />
<glyph unicode="&#xac12;" d="M463 236v-375h-300v375h66v-126h168v126h66zM61 339q79 30 135.5 54.5t94.5 45.5t60.5 41.5t34.5 42.5t15.5 48t3.5 60v30h-314v62h383v-96q0 -43 -5.5 -76t-21 -61t-42.5 -52t-70 -48.5t-104 -50.5t-144 -58zM751 571h140v-62h-140v-217h-70v486h70v-207zM670 19 q-5 -14 -25 -38t-46 -53q-15 -17 -34 -36.5t-39 -38.5l-45 45q22 20 40.5 39t43.5 45q23 25 37 44t21.5 37t10 37.5t2.5 46.5v91h68v-91q0 -27 2.5 -46.5t10 -37.5t21 -37t36.5 -44q25 -26 44.5 -45.5t39.5 -37.5l-44 -46l-39 39t-34 36q-23 26 -44.5 51.5t-26.5 39.5z M397 -80v132h-168v-132h168z" />
<glyph unicode="&#xac13;" d="M60 279q80 35 136.5 62.5t95 51t61 45t34 44.5t15 49t3.5 59v67h-314v62h383v-133q0 -41 -5 -73.5t-19 -60.5t-40.5 -54t-69 -53t-104.5 -57t-147 -67zM441 237h70v-81q0 -31 5.5 -53t18 -39.5t32.5 -31.5t49 -29q39 -20 91 -43t97 -41l-29 -57q-49 20 -98 43.5t-83 40.5 q-100 50 -118 87q-18 -37 -118 -87q-34 -17 -83 -40.5t-98 -43.5l-30 57q22 9 47.5 19.5t50 21.5t48 22t43.5 21q27 14 47 28t33 31.5t19 40t6 53.5v81zM751 547h140v-62h-140v-289h-70v582h70v-231z" />
<glyph unicode="&#xac14;" d="M491 -138q-32 28 -57.5 50.5t-44.5 40.5q-29 29 -44 46t-17 23q-6 -10 -21 -27t-50 -47q-19 -17 -45 -38t-61 -48l-39 50q64 48 102 81q28 24 44 42t24 35t10 35t2 42v79h69v-82q0 -23 1.5 -39.5t7.5 -31.5t19.5 -31.5t37.5 -40.5q12 -12 27.5 -26t34.5 -29 q19 15 34.5 29t27.5 26q24 24 37.5 40.5t19.5 31.5t7.5 31.5t1.5 39.5v82h69v-79q0 -24 2 -42t10 -35t24 -35t44 -42q37 -33 102 -81l-39 -50q-35 27 -61 48t-45 38q-35 30 -50 47t-21 27q-2 -6 -17 -23t-44 -46q-19 -18 -44.5 -40.5t-57.5 -50.5zM60 309q79 32 135.5 58 t95 48.5t61 44t34.5 44.5t15.5 49.5t3.5 60.5v48h-314v62h383v-115q0 -42 -5.5 -75.5t-20.5 -61.5t-42 -53t-70 -51t-104.5 -54t-144.5 -63zM751 569h140v-62h-140v-226h-70v497h70v-209z" />
<glyph unicode="&#xac15;" d="M484 220q56 0 105.5 -12t86.5 -34t58.5 -54t21.5 -71v-38q0 -39 -21.5 -71t-58.5 -54t-86.5 -34t-105.5 -12t-105.5 12t-86.5 34t-58.5 54t-21.5 71v38q0 40 21.5 72t58.5 54t86.5 33.5t105.5 11.5zM484 -100q40 0 77 8t65 22.5t45 35.5t17 48v32q0 27 -17 48t-45 35.5 t-65 22.5t-77 8t-77 -8t-65 -22.5t-45 -35.5t-17 -48v-32q0 -27 17 -48t45 -35.5t65 -22.5t77 -8zM60 299q79 33 135.5 59.5t95 49.5t61 44.5t34.5 44.5t15.5 49.5t3.5 60.5v51h-314v62h383v-119q0 -63 -13 -107t-54 -82t-117 -77t-201 -93zM751 560h140v-62h-140v-258h-70 v538h70v-218z" />
<glyph unicode="&#xac16;" d="M480 28q-11 -21 -41.5 -43t-78.5 -45q-44 -21 -87.5 -40.5t-88.5 -37.5l-26 54q48 18 93.5 38.5t87.5 40.5q58 28 82 57t24 68v38h-259v61h584v-61h-256v-38q0 -39 23.5 -68t82.5 -57q42 -20 87.5 -40.5t93.5 -38.5l-26 -54q-45 18 -88.5 37.5t-87.5 40.5q-94 46 -119 88 zM60 312q79 33 135.5 58.5t95 48t61 44t34.5 44.5t15.5 49.5t3.5 60.5v44h-314v62h383v-111q0 -42 -5.5 -75.5t-20.5 -61.5t-42 -53t-70 -51t-104.5 -54t-144.5 -63zM751 566h140v-62h-140v-231h-70v505h70v-212z" />
<glyph unicode="&#xac17;" d="M445 184v104h68v-104h260v-61h-260v-20q0 -20 5 -36t17 -30t32.5 -26.5t51.5 -25.5q42 -17 89 -34.5t93 -33.5l-25 -55q-89 32 -177 68q-96 41 -120 82q-12 -21 -42 -41.5t-78 -40.5q-88 -36 -177 -68l-25 55q46 17 93 34t89 34q31 13 51.5 25.5t32.5 26.5t17 30t5 36v20 h-262v61h262zM60 317q79 32 135.5 58t95 48.5t61 44t34.5 44.5t15.5 49.5t3.5 60.5v44h-314v62h383v-111q0 -42 -5.5 -75.5t-20.5 -61.5t-42 -53t-70 -51t-104.5 -54t-144.5 -63zM751 577h140v-62h-140v-236h-70v499h70v-201z" />
<glyph unicode="&#xac19;" d="M198 251h555v-61h-486v-103h477v-60h-477v-105h503v-61h-572v390zM61 353q79 31 135.5 55t94.5 45t60.5 41.5t34.5 42.5t15.5 48t3.5 60v30h-314v62h383v-96q0 -43 -5.5 -76t-21 -61t-42.5 -52t-70 -48.5t-104 -50.5t-144 -58zM751 584h140v-62h-140v-212h-70v468h70 v-194z" />
<glyph unicode="&#xac1a;" d="M177 218h594v-60h-115v-232h119v-60h-601v60h121v232h-118v60zM60 312q79 33 135.5 58.5t95 48t61 44t34.5 44.5t15.5 49.5t3.5 60.5v44h-314v62h383v-111q0 -42 -5.5 -75.5t-20.5 -61.5t-42 -53t-70 -51t-104.5 -54t-144.5 -63zM363 -74h225v232h-225v-232zM751 563h140 v-62h-140v-229h-70v506h70v-215z" />
<glyph unicode="&#xac1b;" d="M478 120q51 0 94.5 -9t75 -26t49 -41t17.5 -54v-22q0 -30 -17.5 -54t-49 -41t-75 -26t-94.5 -9t-94.5 9t-75 26t-49 41t-17.5 54v22q0 30 17.5 54t49 41t75 26t94.5 9zM61 353q79 31 135.5 55t94.5 45t60.5 41.5t34.5 42.5t15.5 48t3.5 60v30h-314v62h383v-96 q0 -43 -5.5 -76t-21 -61t-42.5 -52t-70 -48.5t-104 -50.5t-144 -58zM478 -106q37 0 67.5 6t52.5 16t34.5 24t12.5 30v18q0 16 -12.5 30t-34.5 24t-52.5 15.5t-67.5 5.5t-67.5 -5.5t-52.5 -15.5t-34.5 -24t-12.5 -30v-18q0 -16 12.5 -30t34.5 -24t52.5 -16t67.5 -6zM443 227 v99h70v-99h264v-59h-600v59h266zM751 585h140v-62h-140v-212h-70v467h70v-193z" />
<glyph unicode="&#xac1c;" d="M611 448h138v330h70v-914h-70v521h-138v-476h-70v850h70v-311zM51 120q67 45 115 80.5t80.5 66t51.5 58t29 57t13 64t3 78.5v100h-275v63h344v-167q0 -50 -4.5 -90t-16.5 -74.5t-34 -66t-58 -65.5t-87.5 -72.5t-121.5 -86.5z" />
<glyph unicode="&#xac1d;" d="M599 557h140v221h69v-535h-69v251h-140v-249h-69v521h69v-209zM54 302q94 45 150.5 76.5t85.5 61.5t38 64.5t9 85.5v67h-259v62h327v-138q0 -65 -14 -108t-50 -78t-98 -69.5t-158 -80.5zM213 189h595v-332h-70v270h-525v62z" />
<glyph unicode="&#xac20;" d="M599 532h140v246h69v-649h-69v340h-140v-318h-69v615h69v-234zM53 276q98 50 154.5 84.5t85.5 65t36.5 64t7.5 81.5v81h-259v62h327v-148q0 -58 -11 -100t-45 -79t-97 -76t-167 -91zM298 -63h530v-62h-601v299h71v-237z" />
<glyph unicode="&#xac24;" d="M808 269v-233h-503v-115h527v-60h-596v234h503v113h-508v61h577zM599 594h140v184h69v-455h-69v208h-140v-206h-69v441h69v-172zM54 356q65 27 111 48t77.5 40t50.5 37t28.5 38.5t12.5 45t3 56.5v49h-259v62h327v-117q0 -60 -13 -101t-48 -75t-98.5 -66.5t-163.5 -73.5z " />
<glyph unicode="&#xac2c;" d="M241 209h567v-343h-567v343zM309 -71h431v217h-431v-217zM599 565h140v213h69v-515h-69v239h-140v-237h-69v501h69v-201zM54 307q94 45 150.5 76.5t85.5 61.5t38 64.5t9 85.5v62h-259v62h327v-133q0 -65 -14 -108t-50 -78t-98 -69.5t-158 -80.5z" />
<glyph unicode="&#xac2d;" d="M808 256v-391h-568v391h69v-128h430v128h69zM599 582h140v196h69v-468h-69v209h-140v-207h-69v454h69v-184zM739 -72v138h-430v-138h430zM54 342q65 27 111 48t77.5 40t50.5 37t28.5 38.5t12.5 45t3 56.5v50h-259v62h327v-118q0 -60 -13 -101t-48 -75t-98.5 -66.5 t-163.5 -73.5z" />
<glyph unicode="&#xac2f;" d="M599 560h140v218h69v-583h-69v302h-140v-211h-69v480h69v-206zM53 288q98 50 154.5 84.5t85.5 65t36.5 64t7.5 81.5v69h-259v62h327v-136q0 -58 -11 -100t-45 -79t-97 -76t-167 -91zM465 233h70v-77q0 -31 5.5 -53t18 -39.5t32.5 -31.5t49 -29q39 -20 91 -43t97 -41 l-29 -57q-49 20 -98 43.5t-83 40.5q-100 50 -118 87q-18 -37 -118 -87q-34 -17 -83 -40.5t-98 -43.5l-30 57q22 9 47.5 19.5t50 21.5t48 22t43.5 21q28 14 47.5 28t32.5 31.5t19 40t6 53.5v77z" />
<glyph unicode="&#xac30;" d="M498 -138q-32 28 -57.5 50.5t-44.5 40.5q-29 29 -44 46t-17 23q-6 -10 -21 -27t-50 -47q-19 -17 -45 -38t-61 -48l-39 50q64 48 102 81q28 24 44 42t24 35t10 35t2 42v89h69v-92q0 -23 1.5 -39.5t7.5 -31.5t19.5 -31.5t37.5 -40.5q12 -12 27.5 -26t34.5 -29 q19 15 34.5 29t27.5 26q24 24 37.5 40.5t19.5 31.5t7.5 31.5t1.5 39.5v92h69v-89q0 -24 2 -42t10 -35t24 -35t44 -42q37 -33 102 -81l-39 -50q-35 27 -61 48t-45 38q-35 30 -50 47t-21 27q-2 -6 -17 -23t-44 -46q-19 -18 -44.5 -40.5t-57.5 -50.5zM599 573h140v205h69v-499 h-69v231h-140v-217h-69v473h69v-193zM54 307q94 45 150.5 76.5t85.5 61.5t38 64.5t9 85.5v62h-259v62h327v-133q0 -65 -14 -108t-50 -78t-98 -69.5t-158 -80.5z" />
<glyph unicode="&#xac31;" d="M531 210q56 0 107 -11.5t90 -33t62 -52.5t23 -70v-36q0 -39 -23 -70t-62 -52.5t-90 -33t-107 -11.5t-107 11.5t-90 33t-62 52.5t-23 70v37q0 40 23 71t62 52t90 32t107 11zM531 -100q40 0 78.5 7t68.5 21t48.5 34.5t18.5 47.5v30q0 27 -18.5 47.5t-48.5 34.5t-68.5 21 t-78.5 7t-78.5 -7t-68.5 -21t-48.5 -34t-18.5 -47v-31q0 -27 18.5 -47.5t48.5 -34.5t68.5 -21t78.5 -7zM599 564h140v214h69v-548h-69v271h-140v-232h-69v497h69v-202zM53 290q98 50 154.5 84.5t85.5 65t36.5 64t7.5 81.5v69h-259v62h327v-136q0 -58 -11 -100t-45 -79 t-97 -76t-167 -91z" />
<glyph unicode="&#xac38;" d="M739 565h152v-63h-152v-194h152v-63h-152v-381h-70v914h70v-213zM62 131q77 44 132 79t92.5 65.5t60.5 57.5t35 54.5t16 58.5t4 68v113h-330v64h399v-178q0 -68 -12.5 -118.5t-51.5 -98t-112.5 -99.5t-195.5 -123z" />
<glyph unicode="&#xac39;" d="M50 302q79 33 135.5 59.5t94.5 49t61 44t35 45t15.5 50t3.5 60.5v51h-314v62h383v-119q0 -42 -5.5 -75.5t-20.5 -61.5t-42 -53t-70 -51t-104.5 -54.5t-144.5 -64.5zM168 194h573v-337h-70v275h-503v62zM741 643h140v-62h-140v-124h140v-62h-140v-147h-69v530h69v-135z " />
<glyph unicode="&#xac3c;" d="M50 275q80 35 136.5 62.5t95 51t61 45t34 44.5t15 49t3.5 59v70h-314v62h383v-136q0 -41 -5 -73.5t-19 -60.5t-40.5 -54t-69 -53t-104.5 -57t-147 -67zM741 608h140v-62h-140v-141h140v-62h-140v-219h-69v654h69v-170zM265 -63h504v-62h-575v298h71v-236z" />
<glyph unicode="&#xac40;" d="M741 268v-233h-482v-114h506v-60h-575v233h482v113h-487v61h556zM51 354q119 46 187.5 78t103.5 62.5t44 65t9 85.5v30h-314v62h383v-96q0 -43 -5.5 -76t-21 -61t-42.5 -52t-70 -48t-104 -50t-144 -58zM741 660h140v-62h-140v-99h140v-62h-140v-115h-69v456h69v-118z" />
<glyph unicode="&#xac4b;" d="M50 279q80 35 136.5 62.5t95 51t61 45t34 44.5t15 49t3.5 59v67h-314v62h383v-133q0 -41 -5 -73.5t-19 -60.5t-40.5 -54t-69 -53t-104.5 -57t-147 -67zM741 636h140v-62h-140v-125h140v-62h-140v-191h-69v582h69v-142zM431 237h70v-81q0 -31 5.5 -53t18 -39.5t32.5 -31.5 t49 -29q39 -20 91 -43t97 -41l-29 -57q-49 20 -98 43.5t-83 40.5q-100 50 -118 87q-18 -37 -118 -87q-34 -17 -83 -40.5t-98 -43.5l-30 57q22 9 47.5 19.5t50 21.5t48 22t43.5 21q27 14 47 28t33 31.5t19 40t6 53.5v81z" />
<glyph unicode="&#xac4d;" d="M474 220q56 0 105.5 -12t86.5 -34t58.5 -54t21.5 -71v-38q0 -39 -21.5 -71t-58.5 -54t-86.5 -34t-105.5 -12t-105.5 12t-86.5 34t-58.5 54t-21.5 71v38q0 40 21.5 72t58.5 54t86.5 33.5t105.5 11.5zM474 -100q40 0 77 8t65 22.5t45 35.5t17 48v32q0 27 -17 48t-45 35.5 t-65 22.5t-77 8t-77 -8t-65 -22.5t-45 -35.5t-17 -48v-32q0 -27 17 -48t45 -35.5t65 -22.5t77 -8zM50 299q79 33 135.5 59.5t95 49.5t61 44.5t34.5 44.5t15.5 49.5t3.5 60.5v51h-314v62h383v-119q0 -63 -13 -107t-54 -82t-117 -77t-201 -93zM741 640h140v-62h-140v-123h140 v-62h-140v-153h-69v538h69v-138z" />
<glyph unicode="&#xac54;" d="M610 565h141v213h69v-914h-69v372h-141v-327h-69v850h69v-194zM51 120q67 45 115 80.5t80.5 66t51.5 58t29 57t13 64t3 78.5v100h-275v63h344v-167q0 -50 -4.5 -90t-16.5 -74.5t-34 -66t-58 -65.5t-87.5 -72.5t-121.5 -86.5zM610 299h141v203h-141v-203z" />
<glyph unicode="&#xac58;" d="M597 628h143v150h68v-650h-68v237h-143v-215h-68v616h68v-138zM53 276q98 50 154.5 84.5t85.5 65t36.5 64t7.5 81.5v81h-259v62h327v-148q0 -58 -11 -100t-45 -79t-97 -76t-167 -91zM298 -63h530v-62h-601v299h71v-237zM597 428h143v137h-143v-137z" />
<glyph unicode="&#xac5c;" d="M808 267v-232h-503v-114h527v-60h-596v233h503v112h-508v61h577zM597 659h143v119h68v-457h-68v115h-143v-113h-68v443h68v-107zM54 356q65 27 111 48t77.5 40t50.5 37t28.5 38.5t12.5 45t3 56.5v49h-259v62h327v-117q0 -60 -13 -101t-48 -75t-98.5 -66.5t-163.5 -73.5z M597 498h143v99h-143v-99z" />
<glyph unicode="&#xac70;" d="M74 130q76 43 131 78t93 64.5t61.5 56.5t36 55t17 59t4.5 69v115h-334v64h403v-178q0 -35 -3 -65h239v330h70v-914h-70v520h-252q-12 -38 -36.5 -72t-66.5 -70t-105 -77t-152 -92z" />
<glyph unicode="&#xac71;" d="M73 301q80 34 137.5 60.5t96 50t61 45t34 44.5t15 49.5t3.5 59.5v51h-316v62h385v-119q0 -31 -3 -58h237v232h70v-530h-70v236h-253q-13 -32 -39 -59.5t-70 -55t-108 -58t-153 -68.5zM205 194h588v-337h-70v275h-518v62z" />
<glyph unicode="&#xac74;" d="M73 274q80 35 137 62.5t95.5 51t61 45t34.5 44.5t15.5 49.5t3.5 59.5v70h-316v62h385v-136q0 -31 -3 -56h237v252h70v-654h-70v340h-251q-13 -32 -38 -59.5t-68.5 -56.5t-108 -61t-155.5 -71zM304 -63h512v-62h-583v298h71v-236z" />
<glyph unicode="&#xac77;" d="M73 305q79 33 135.5 59.5t95 49.5t61.5 44.5t35 45t16 50t4 60.5v47h-316v62h385v-115q0 -17 -1 -32.5t-3 -29.5h238v232h70v-515h-70v221h-254q-14 -31 -40 -57.5t-69.5 -53.5t-106.5 -57.5t-151 -67.5zM234 209h562v-62h-492v-219h509v-62h-579v343z" />
<glyph unicode="&#xac78;" d="M793 268v-233h-490v-114h514v-60h-583v233h490v113h-495v61h564zM74 352q79 30 135.5 54.5t95 46t61.5 41.5t35 42.5t15.5 48.5t3.5 60v30h-316v62h385v-96q0 -17 -1 -32.5t-3 -29.5h238v199h70v-456h-70v195h-254q-14 -31 -40.5 -57t-70 -52t-107 -53.5t-151.5 -60.5z " />
<glyph unicode="&#xac7a;" d="M515 -139v401h278v-401h-278zM74 353q79 31 135.5 55t95 45t61.5 41.5t35 42.5t15.5 48t3.5 60v30h-316v62h385v-96q0 -17 -1 -32.5t-3 -29.5h238v199h70v-462h-70v201h-255q-14 -31 -40.5 -57t-70 -51.5t-106.5 -53t-151 -60.5zM448 262v-229h-213v-112h58q19 0 42 1 t47 2.5t46 3.5t39 4l5 -59q-38 -5 -89.5 -8.5t-102.5 -3.5h-111v230h213v111h-218v60h284zM581 203v-283h146v283h-146z" />
<glyph unicode="&#xac80;" d="M234 214h559v-348h-559v348zM73 306q79 33 135.5 59.5t95 49.5t61.5 44.5t35 45t16 50t4 60.5v46h-316v62h385v-114q0 -31 -3 -58h237v227h70v-510h-70v221h-253q-13 -32 -39 -59t-69.5 -55t-107.5 -58.5t-154 -68.5zM302 -71h423v222h-423v-222z" />
<glyph unicode="&#xac81;" d="M793 259v-394h-558v394h69v-129h420v129h69zM74 338q79 30 135.5 54.5t95 46t61.5 41.5t35 42.5t15.5 48.5t3.5 60v30h-316v62h385v-96q0 -41 -6 -74h240v225h70v-465h-70v178h-261q-15 -29 -42.5 -53.5t-70.5 -49t-104 -50.5t-145 -58zM724 -72v140h-420v-140h420z" />
<glyph unicode="&#xac83;" d="M73 278q80 35 137 62.5t95.5 51t61 45t34.5 44.5t15.5 49.5t3.5 59.5v67h-316v62h385v-133q0 -14 -0.5 -26.5t-1.5 -24.5h236v243h70v-582h-70v277h-249q-12 -33 -37 -61.5t-68.5 -57.5t-108.5 -61.5t-158 -72.5zM471 237h70v-81q0 -31 5.5 -53t18 -39.5t32.5 -31.5 t49 -29q39 -20 91 -43t97 -41l-29 -57q-49 20 -98 43.5t-83 40.5q-100 50 -118 87q-18 -37 -118 -87q-34 -17 -83 -40.5t-98 -43.5l-30 57q22 9 47.5 19.5t50 21.5t48 22t43.5 21q28 14 47.5 28t32.5 31.5t19 40t6 53.5v81z" />
<glyph unicode="&#xac84;" d="M73 308q79 32 135.5 58t95 49t61.5 44t35.5 44.5t16 50t3.5 60.5v48h-316v62h385v-115q0 -28 -3 -52h237v221h70v-494h-70v211h-250q-12 -33 -37.5 -61.5t-69.5 -56.5t-109 -58.5t-157 -68.5zM504 -138q-84 71 -121.5 110.5t-41.5 49.5q-6 -10 -21 -27t-50 -47 q-19 -17 -45 -38t-61 -48l-39 50q64 48 102 81q28 24 44 42t24 35t10 35t2 42v79h69v-82q0 -23 1.5 -39.5t7.5 -31.5t19.5 -31.5t37.5 -40.5q12 -12 27.5 -26t34.5 -29q19 15 34.5 29t27.5 26q24 24 37.5 40.5t19.5 31.5t7.5 31.5t1.5 39.5v82h69v-79q0 -24 2 -42t10 -35 t24 -35t44 -42q37 -33 102 -81l-39 -50q-35 27 -61 48t-45 38q-35 30 -50 47t-21 27q-4 -10 -41.5 -49.5t-121.5 -110.5z" />
<glyph unicode="&#xac85;" d="M521 220q56 0 106.5 -12t88.5 -34t60 -53.5t22 -70.5v-39q0 -39 -22 -71t-60 -54t-88.5 -34t-106.5 -12t-106.5 12t-88.5 34t-60 54t-22 71v39q0 40 22 72t60 53.5t88.5 33t106.5 11.5zM73 298q79 33 135.5 59.5t95 49.5t61.5 44.5t35.5 45t16 50t3.5 60.5v51h-316v62 h385v-119q0 -30 -3 -55h237v232h70v-538h-70v244h-252q-13 -32 -38 -59.5t-68.5 -55.5t-108 -58.5t-154.5 -69.5zM521 -100q40 0 77.5 7.5t67 22t47 35.5t17.5 48v34q0 27 -17.5 48t-47 35.5t-67 22t-77.5 7.5t-77.5 -7.5t-67 -22t-47 -35.5t-17.5 -48v-34q0 -27 17.5 -48 t47 -35.5t67 -22t77.5 -7.5z" />
<glyph unicode="&#xac86;" d="M73 311q79 32 135.5 58t95 49t61.5 44t35.5 44.5t16 50t3.5 60.5v44h-316v62h385v-111q0 -32 -3 -59h237v225h70v-505h-70v218h-253q-14 -32 -40 -59t-69.5 -54.5t-107.5 -57.5t-153 -67zM507 29q-11 -21 -41.5 -43t-78.5 -45q-44 -21 -90 -41t-91 -38l-26 54 q48 18 96 39t90 41q58 28 82 57t24 68v37h-264v61h594v-61h-261v-37q0 -39 23.5 -68t82.5 -57q42 -20 90 -41t96 -39l-26 -54q-45 18 -91 38t-90 41q-94 46 -119 88z" />
<glyph unicode="&#xac89;" d="M232 251h563v-61h-494v-103h485v-60h-485v-105h511v-61h-580v390zM74 352q79 30 135.5 54.5t95 46t61.5 41.5t35 42.5t15.5 48.5t3.5 60v30h-316v62h385v-96q0 -18 -1 -34t-3 -30h238v201h70v-473h-70v210h-255q-14 -30 -40.5 -56t-70 -51.5t-107 -53t-150.5 -60.5z" />
<glyph unicode="&#xac8a;" d="M202 218h604v-60h-120v-232h124v-60h-611v60h123v232h-120v60zM73 311q79 32 135.5 58t95 49t61.5 44t35.5 44.5t16 50t3.5 60.5v44h-316v62h385v-111q0 -17 -1 -32t-3 -29h238v227h70v-506h-70v217h-254q-14 -32 -40 -59t-69.5 -54t-107.5 -56.5t-152 -66.5zM390 -74 h228v232h-228v-232z" />
<glyph unicode="&#xac8b;" d="M514 120q49 0 93 -8.5t77 -25t52 -41t19 -55.5v-22q0 -31 -19 -55.5t-52 -41t-77 -25t-93 -8.5t-93 8.5t-77 25t-52 41t-19 55.5v22q0 31 19 55.5t52 41t77 25t93 8.5zM74 352q79 30 135.5 54.5t95 46t61.5 41.5t35 42.5t15.5 48.5t3.5 60v30h-316v62h385v-96 q0 -17 -1 -32.5t-3 -29.5h238v199h70v-467h-70v206h-254q-14 -31 -40.5 -57t-70 -52t-107 -53.5t-151.5 -60.5zM514 -106q37 0 68.5 5.5t54.5 15.5t36 24t13 31v18q0 17 -13 31t-36 24t-54.5 15.5t-68.5 5.5t-68.5 -5.5t-54.5 -15.5t-36 -24t-13 -31v-18q0 -17 13 -31 t36 -24t54.5 -15.5t68.5 -5.5zM479 227v99h70v-99h269v-59h-610v59h271z" />
<glyph unicode="&#xac8c;" d="M51 120q67 45 115 80.5t80.5 66t51.5 58t29 57t13 64t3 78.5v100h-275v63h344v-167q0 -25 -1.5 -47t-3.5 -42h158v328h70v-850h-70v459h-170q-11 -37 -32.5 -70t-57.5 -68.5t-89 -75t-126 -89.5zM819 -136h-70v914h70v-914z" />
<glyph unicode="&#xac90;" d="M627 151h-69v318h-163q-9 -33 -29 -61.5t-56 -57t-91 -60t-134 -71.5l-32 56q98 50 154.5 84.5t85.5 65t36.5 64t7.5 81.5v82h-259v62h327v-149q0 -9 -0.5 -17t-0.5 -16h154v234h69v-615zM298 -63h530v-62h-601v299h71v-237zM808 129h-69v649h69v-649z" />
<glyph unicode="&#xac94;" d="M808 269v-233h-503v-115h527v-60h-596v234h503v113h-508v61h577zM54 355q65 27 111 48t77.5 40t50.5 37t28.5 38.5t12.5 45t3 56.5v50h-259v62h327v-118v-14.5t-1 -13.5h154v180h69v-441h-69v199h-163q-9 -35 -29.5 -62.5t-57.5 -53t-92.5 -52t-133.5 -58.5zM808 323h-69 v455h69v-455z" />
<glyph unicode="&#xac9c;" d="M241 209h567v-343h-567v343zM627 265h-69v237h-160q-9 -40 -29.5 -70.5t-57.5 -58.5t-92.5 -57t-133.5 -67l-31 57q94 45 150.5 76.5t85.5 61.5t38 64.5t9 85.5v63h-259v62h327v-134q0 -5 -0.5 -10t-0.5 -10h154v201h69v-501zM309 -71h431v217h-431v-217zM808 263h-69 v515h69v-515z" />
<glyph unicode="&#xac9d;" d="M808 256v-391h-568v391h69v-128h430v128h69zM54 341q65 27 111 48t77.5 40t50.5 37t28.5 38.5t12.5 45t3 56.5v51h-259v62h327v-119q0 -6 -0.5 -11t-0.5 -10h154v187h69v-454h-69v205h-161q-9 -37 -29 -65.5t-57 -55t-93 -53t-136 -59.5zM739 -72v138h-430v-138h430z M808 310h-69v468h69v-468z" />
<glyph unicode="&#xac9f;" d="M53 287q98 50 154.5 84.5t85.5 65t36.5 64t7.5 81.5v70h-259v62h327v-137q0 -5 -0.5 -9t-0.5 -9h154v207h69v-480h-69v210h-160q-7 -37 -25.5 -67.5t-54.5 -60.5t-92.5 -62.5t-140.5 -74.5zM465 233h70v-77q0 -31 5.5 -53t18 -39.5t32.5 -31.5t49 -29q39 -20 91 -43 t97 -41l-29 -57q-49 20 -98 43.5t-83 40.5q-100 50 -118 87q-18 -37 -118 -87q-34 -17 -83 -40.5t-98 -43.5l-30 57q22 9 47.5 19.5t50 21.5t48 22t43.5 21q28 14 47.5 28t32.5 31.5t19 40t6 53.5v77zM808 195h-69v583h69v-583z" />
<glyph unicode="&#xaca0;" d="M54 306q94 45 150.5 76.5t85.5 61.5t38 64.5t9 85.5v63h-259v62h327v-133q0 -5 -0.5 -9.5t-0.5 -9.5h154v199h69v-473h-69v212h-160q-8 -41 -28.5 -71.5t-57 -59t-92.5 -58t-135 -67.5zM498 -138q-32 28 -57.5 50.5t-44.5 40.5q-29 29 -44 46t-17 23q-6 -10 -21 -27 t-50 -47q-19 -17 -45 -38t-61 -48l-39 50q64 48 102 81q28 24 44 42t24 35t10 35t2 42v89h69v-92q0 -23 1.5 -39.5t7.5 -31.5t19.5 -31.5t37.5 -40.5q12 -12 27.5 -26t34.5 -29q19 15 34.5 29t27.5 26q24 24 37.5 40.5t19.5 31.5t7.5 31.5t1.5 39.5v92h69v-89q0 -24 2 -42 t10 -35t24 -35t44 -42q37 -33 102 -81l-39 -50q-35 27 -61 48t-45 38q-35 30 -50 47t-21 27q-2 -6 -17 -23t-44 -46q-19 -18 -44.5 -40.5t-57.5 -50.5zM808 279h-69v499h69v-499z" />
<glyph unicode="&#xaca1;" d="M531 210q56 0 107 -11.5t90 -33t62 -52.5t23 -70v-36q0 -39 -23 -70t-62 -52.5t-90 -33t-107 -11.5t-107 11.5t-90 33t-62 52.5t-23 70v37q0 40 23 71t62 52t90 32t107 11zM53 290q98 50 154.5 84.5t85.5 65t36.5 64t7.5 81.5v69h-259v62h327v-136v-13.5t-1 -12.5h154 v212h69v-497h-69v222h-161q-8 -35 -27.5 -64.5t-55.5 -58.5t-92 -61.5t-137 -72.5zM531 -100q40 0 78.5 7t68.5 21t48.5 34.5t18.5 47.5v30q0 27 -18.5 47.5t-48.5 34.5t-68.5 21t-78.5 7t-78.5 -7t-68.5 -21t-48.5 -34t-18.5 -47v-31q0 -27 18.5 -47.5t48.5 -34.5t68.5 -21 t78.5 -7zM808 230h-69v548h69v-548z" />
<glyph unicode="&#xaca8;" d="M73 130q76 44 131.5 79t93.5 65t61 57t35.5 55t16.5 58.5t4 68.5v114h-332v64h401v-134h239v221h69v-914h-69v385h-223v64h223v180h-239q-2 -63 -16.5 -111t-55 -94t-113 -96.5t-189.5 -118.5z" />
<glyph unicode="&#xaca9;" d="M72 302q80 34 137 60.5t95.5 49.5t61 44.5t34 44.5t14.5 49.5t3 59.5v51h-314v62h383v-119q0 -42 -5.5 -75.5t-20.5 -61.5t-42 -53t-69.5 -50.5t-104 -54.5t-144.5 -64zM724 635v143h69v-533h-69v139h-197v61h197v129h-182v61h182zM205 191h588v-334h-69v272h-519v62z " />
<glyph unicode="&#xacaa;" d="M72 307q79 33 135.5 59.5t94.5 49t61 44t35 45t15.5 50t3.5 60.5v46h-314v62h383v-114q0 -42 -5.5 -75.5t-20.5 -61.5t-42 -53t-70 -51t-104.5 -54.5t-144.5 -64.5zM724 640v138h69v-527h-69v142h-197v61h197v125h-182v61h182zM164 197h302v-340h-68v278h-234v62z M516 197h277v-340h-68v278h-209v62z" />
<glyph unicode="&#xacac;" d="M724 629v149h69v-654h-69v236h-197v61h197v147h-182v61h182zM72 275q80 35 136.5 62.5t95 51t61 45t34 44.5t15 49t3.5 59v70h-314v62h383v-136q0 -41 -5 -73.5t-19 -60.5t-40.5 -54t-69 -53t-104.5 -57t-147 -67zM304 -63h512v-62h-583v298h71v-236z" />
<glyph unicode="&#xacaf;" d="M234 209h562v-62h-492v-219h509v-62h-579v343zM72 306q79 33 135.5 59.5t94.5 49t61 44t35 45t15.5 50t3.5 60.5v47h-314v62h383v-115q0 -63 -13 -107t-54 -82t-117 -77t-201 -93zM724 635v143h69v-515h-69v123h-197v61h197v127h-182v61h182z" />
<glyph unicode="&#xacb0;" d="M793 266v-232h-490v-113h514v-60h-583v232h490v112h-495v61h564zM73 354q119 46 187.5 78t103.5 62.5t44 65t9 85.5v30h-314v62h383v-96q0 -43 -5.5 -76t-21 -61t-42.5 -52t-70 -48t-104 -50t-144 -58zM724 491v113h-182v61h182v113h69v-458h-69v110h-197v61h197z" />
<glyph unicode="&#xacb8;" d="M234 214h559v-348h-559v348zM302 -71h423v222h-423v-222zM72 307q79 33 135.5 59.5t94.5 49t61 44t35 45t15.5 50t3.5 60.5v46h-314v62h383v-114q0 -42 -5.5 -75.5t-20.5 -61.5t-42 -53t-70 -51t-104.5 -54.5t-144.5 -64.5zM724 643v135h69v-510h-69v129h-197v61h197v124 h-182v61h182z" />
<glyph unicode="&#xacb9;" d="M793 257v-392h-558v392h69v-128h420v128h69zM73 339q79 30 135.5 54.5t94.5 45.5t60.5 41.5t34.5 42.5t15.5 48t3.5 60v30h-314v62h383v-96q0 -43 -5.5 -76t-21 -61t-42.5 -52t-70 -48.5t-104 -50.5t-144 -58zM724 -72v139h-420v-139h420zM724 644v134h69v-467h-69v97 h-197v61h197v114h-182v61h182z" />
<glyph unicode="&#xacbb;" d="M72 278q80 35 136.5 62.5t95 51t61 45t34 44.5t15 49t3.5 59v68h-314v62h383v-134q0 -41 -5 -73.5t-19 -60.5t-40.5 -54t-69 -53t-104.5 -57t-147 -67zM724 629v149h69v-583h-69v172h-197v61h197v140h-182v61h182zM471 235h70v-79q0 -31 5.5 -53t18 -39.5t32.5 -31.5 t49 -29q39 -20 91 -43t97 -41l-29 -57q-49 20 -98 43.5t-83 40.5q-100 50 -118 87q-18 -37 -118 -87q-34 -17 -83 -40.5t-98 -43.5l-30 57q22 9 47.5 19.5t50 21.5t48 22t43.5 21q28 14 47.5 28t32.5 31.5t19 40t6 53.5v79z" />
<glyph unicode="&#xacbc;" d="M503 -138q-84 71 -121.5 110.5t-41.5 49.5q-6 -10 -21 -27t-50 -47q-19 -17 -45 -38t-61 -48l-39 50q64 48 102 81q28 24 44 42t24 35t10 35t2 42v77h69v-80q0 -23 1.5 -39.5t7.5 -31.5t19.5 -31.5t37.5 -40.5q12 -12 27.5 -26t34.5 -29q19 15 34.5 29t27.5 26 q24 24 37.5 40.5t19.5 31.5t7.5 31.5t1.5 39.5v80h69v-77q0 -24 2 -42t10 -35t24 -35t44 -42q37 -33 102 -81l-39 -50q-35 27 -61 48t-45 38q-35 30 -50 47t-21 27q-4 -10 -41.5 -49.5t-121.5 -110.5zM72 309q79 32 135.5 58t95 48.5t61 44t34.5 44.5t15.5 49.5t3.5 60.5v48 h-314v62h383v-115q0 -42 -5.5 -75.5t-20.5 -61.5t-42 -53t-70 -51t-104.5 -54t-144.5 -63zM724 646v132h69v-496h-69v119h-197v61h197v123h-182v61h182z" />
<glyph unicode="&#xacbd;" d="M521 220q56 0 106.5 -12t88.5 -34t60 -53.5t22 -70.5v-39q0 -39 -22 -71t-60 -54t-88.5 -34t-106.5 -12t-106.5 12t-88.5 34t-60 54t-22 71v39q0 40 22 72t60 53.5t88.5 33t106.5 11.5zM521 -100q40 0 77.5 7.5t67 22t47 35.5t17.5 48v34q0 27 -17.5 48t-47 35.5t-67 22 t-77.5 7.5t-77.5 -7.5t-67 -22t-47 -35.5t-17.5 -48v-34q0 -27 17.5 -48t47 -35.5t67 -22t77.5 -7.5zM72 299q79 33 135.5 59.5t95 49.5t61 44.5t34.5 44.5t15.5 49.5t3.5 60.5v51h-314v62h383v-119q0 -63 -13 -107t-54 -82t-117 -77t-201 -93zM724 637v141h69v-538h-69v144 h-197v61h197v131h-182v61h182z" />
<glyph unicode="&#xacc1;" d="M232 251h563v-61h-494v-103h485v-60h-485v-105h511v-61h-580v390zM73 353q79 31 135.5 55t94.5 45t60.5 41.5t34.5 42.5t15.5 48t3.5 60v30h-314v62h383v-96q0 -43 -5.5 -76t-21 -61t-42.5 -52t-70 -48.5t-104 -50.5t-144 -58zM724 664v114h69v-473h-69v124h-197v61h197 v113h-182v61h182z" />
<glyph unicode="&#xacc4;" d="M49 120q67 45 115 80.5t80.5 66t51.5 58t29 57t13 64t3 78.5v100h-275v63h344v-142h159v214h70v-850h-70v336h-159v62h159v176h-160q-2 -65 -15.5 -113t-48.5 -93.5t-96.5 -95t-160.5 -116.5zM819 -136h-70v914h70v-914z" />
<glyph unicode="&#xacc8;" d="M572 599v167h69v-615h-69v196h-151v62h151v128h-136v62h136zM51 275q98 50 154 84.5t84.5 65t36 64t7.5 81.5v82h-257v62h325v-149q0 -58 -10.5 -100t-44 -79t-96.5 -76t-167 -91zM298 -63h530v-62h-601v299h71v-237zM808 129h-69v649h69v-649z" />
<glyph unicode="&#xaccc;" d="M808 267v-232h-503v-114h527v-60h-596v233h503v112h-508v61h577zM52 354q97 40 153.5 68.5t84.5 56.5t35.5 60t7.5 80v51h-257v62h325v-119q0 -60 -12.5 -101t-47.5 -75t-98 -66.5t-163 -73.5zM572 649v117h68v-443h-68v109h-145v60h145v97h-136v60h136zM808 321h-69v457 h69v-457z" />
<glyph unicode="&#xacd5;" d="M808 255v-390h-568v390h69v-128h430v128h69zM739 -72v137h-430v-137h430zM52 341q97 40 153.5 68.5t84.5 56.5t35.5 60t7.5 80v51h-257v62h325v-119q0 -60 -12.5 -101t-47.5 -75t-98 -66.5t-163 -73.5zM572 644v122h69v-455h-69v115h-145v60h145v98h-136v60h136zM808 309 h-69v469h69v-469z" />
<glyph unicode="&#xacd7;" d="M51 287q98 50 154 84.5t84.5 65t36 64t7.5 81.5v70h-257v62h325v-137q0 -58 -10.5 -100t-44 -79t-96.5 -76t-167 -91zM465 229h70v-73q0 -31 5.5 -53t18 -39.5t32.5 -31.5t49 -29q39 -20 91 -43t97 -41l-29 -57q-49 20 -98 43.5t-83 40.5q-100 50 -118 87 q-18 -37 -118 -87q-34 -17 -83 -40.5t-98 -43.5l-30 57q22 9 47.5 19.5t50 21.5t48 22t43.5 21q28 14 47.5 28t32.5 31.5t19 40t6 53.5v73zM572 632v134h69v-484h-69v110h-145v62h145v116h-136v62h136zM808 194h-69v584h69v-584z" />
<glyph unicode="&#xace0;" d="M354 54v351h72v-351h449v-61h-840v61h319zM640 180q9 46 15.5 90.5t11 89t7 91t2.5 96.5v83h-535v62h608v-108q0 -63 -2 -117.5t-6.5 -104t-11 -96.5t-15.5 -95z" />
<glyph unicode="&#xace1;" d="M369 343v198h72v-198h434v-60h-840v60h334zM747 738v-95q0 -27 -2 -57t-5.5 -60t-8 -59t-9.5 -53l-70 8q11 52 18 108t7 109v37h-531v62h601zM142 163h612v-306h-70v245h-542v61z" />
<glyph unicode="&#xace4;" d="M369 304v219h72v-219h434v-60h-840v60h334zM747 730v-122q0 -27 -2 -57t-5.5 -60.5t-8 -59.5t-9.5 -53l-70 8q11 52 18 109.5t7 107.5v65h-531v62h601zM231 -63h539v-62h-610v277h71v-215z" />
<glyph unicode="&#xace7;" d="M157 175h598v-61h-529v-187h546v-61h-615v309zM369 350v191h72v-191h434v-60h-840v60h334zM747 738v-93q0 -27 -2 -57t-5.5 -60.5t-8 -59t-9.5 -52.5l-70 8q11 52 18 109t7 105v38h-531v62h601z" />
<glyph unicode="&#xace8;" d="M750 247v-222h-521v-106h548v-59h-617v223h521v105h-526v59h595zM369 401v173h72v-173h434v-60h-840v60h334zM747 748v-84q0 -20 -1 -45.5t-3.5 -54t-6.5 -57t-9 -52.5l-70 8q11 48 15.5 99.5t4.5 92.5v31h-531v62h601z" />
<glyph unicode="&#xacea;" d="M487 -140v385h281v-385h-281zM420 245v-220h-213v-106h58q19 0 42 1t47 2.5t46 3.5t39 4l5 -58q-38 -5 -89.5 -8.5t-102.5 -3.5h-111v222h213v104h-218v59h284zM369 401v173h72v-173h434v-60h-840v60h334zM747 748v-84q0 -20 -1 -45.5t-3.5 -54t-6.5 -57t-9 -52.5l-70 8 q11 48 15.5 99.5t4.5 92.5v31h-531v62h601zM553 186v-267h149v267h-149z" />
<glyph unicode="&#xacec;" d="M421 245v-220h-213v-105h58q19 0 42 1t47 2.5t46 3.5t39 4l5 -59q-38 -5 -89.5 -8.5t-102.5 -3.5h-111v223h213v102h-218v60h284zM369 401v173h72v-173h434v-60h-840v60h334zM747 748v-84q0 -20 -1 -45.5t-3.5 -54t-6.5 -57t-9 -52.5l-70 8q11 48 15.5 99.5t4.5 92.5v31 h-531v62h601zM635 22q-5 -13 -24 -38t-45 -54q-15 -17 -33.5 -37t-37.5 -40l-46 44q19 19 38.5 39t43.5 47q21 24 35 43t21.5 37t10.5 38.5t3 48.5v102h68v-102q0 -29 3 -49.5t10.5 -38.5t21 -36.5t34.5 -42.5q24 -27 43.5 -47t38.5 -39l-45 -44q-19 20 -37.5 40t-33.5 37 q-26 30 -45 54.5t-24 37.5z" />
<glyph unicode="&#xacef;" d="M475 -16q0 22 10 43t29.5 37.5t48 26.5t65.5 10t65.5 -10t48 -26.5t29.5 -37.5t10 -43v-24q0 -22 -10 -43t-29.5 -37.5t-48 -26.5t-65.5 -10t-65.5 10t-48 26.5t-29.5 37.5t-10 43v24zM411 247v-221h-209v-106h56q19 0 42 1t47 2.5t46 3.5t39 4l6 -58q-39 -6 -90.5 -9.5 t-102.5 -3.5h-108v224h209v103h-214v60h279zM369 401v173h72v-173h434v-60h-840v60h334zM747 748v-84q0 -20 -1 -45.5t-3.5 -54t-6.5 -57t-9 -52.5l-70 8q11 48 15.5 99.5t4.5 92.5v31h-531v62h601zM661 194h137v-56h-341v56h135v87h69v-87zM720 -19q0 25 -24 45t-68 20 t-68 -20t-24 -45v-18q0 -25 24 -45t68 -20t68 20t24 45v18z" />
<glyph unicode="&#xacf0;" d="M158 181h594v-315h-594v315zM226 -71h458v189h-458v-189zM369 353v189h72v-189h434v-60h-840v60h334zM747 738v-89q0 -27 -2 -57t-5.5 -60.5t-8 -59.5t-9.5 -53l-70 8q12 54 18.5 111.5t6.5 103.5v34h-531v62h601z" />
<glyph unicode="&#xacf1;" d="M753 226v-361h-596v361h69v-118h458v118h69zM369 370v188h72v-188h434v-60h-840v60h334zM747 743v-97q0 -20 -1 -46t-3.5 -54.5t-6.5 -57t-9 -52.5l-70 8q6 28 10 56.5t6 54.5t3 47.5t1 36.5v42h-531v62h601zM684 -72v118h-458v-118h458z" />
<glyph unicode="&#xacf3;" d="M369 339v198h72v-198h434v-60h-840v60h334zM747 738v-97q0 -54 -6.5 -114t-18.5 -117l-70 8q13 58 19 114.5t6 104.5v39h-531v62h601zM454 30q-3 -7 -11.5 -15t-20.5 -15.5t-26 -15t-27 -14.5q-29 -15 -60.5 -30.5t-62.5 -29.5t-59.5 -26.5t-52.5 -22.5l-29 55 q25 10 55 22.5t60 26t56.5 26.5t44.5 22q33 17 52 30.5t29 28.5t13 33t3 45v51h70v-51q0 -27 3.5 -46t13.5 -33.5t28.5 -27.5t49.5 -29q48 -24 102.5 -49t115.5 -49l-29 -54q-48 20 -110 48.5t-125 60.5q-26 14 -51.5 29.5t-30.5 29.5h-1z" />
<glyph unicode="&#xacf5;" d="M455 202q56 0 107.5 -10.5t90.5 -31.5t62.5 -51.5t23.5 -69.5v-36q0 -39 -23.5 -69.5t-62.5 -51.5t-90.5 -31.5t-107.5 -10.5t-107.5 10.5t-90.5 31.5t-62.5 51.5t-23.5 69.5v36q0 40 23.5 70.5t62.5 51t90.5 31t107.5 10.5zM455 -100q40 0 79 7.5t69.5 21t49 33.5 t18.5 45v28q0 25 -18.5 45t-49 33.5t-69.5 21t-79 7.5q-41 0 -79.5 -7.5t-69 -21t-49 -33.5t-18.5 -45v-28q0 -25 18.5 -45t49 -33.5t69 -21t79.5 -7.5zM369 349v193h72v-193h434v-60h-840v60h334zM747 738v-93q0 -27 -2 -57t-5.5 -60.5t-8 -59.5t-9.5 -53l-70 8 q12 55 18.5 112.5t6.5 108.5v32h-531v62h601z" />
<glyph unicode="&#xacf6;" d="M455 4q-12 -20 -43.5 -37t-76.5 -37q-45 -18 -91.5 -36t-90.5 -33l-25 55q47 16 96 34t91 35q31 13 51.5 24.5t32.5 24t17 27t5 34.5v32h-286v61h640v-61h-286v-32q0 -20 5 -35t17 -27.5t32.5 -23.5t51.5 -24q42 -17 91 -35t96 -34l-25 -55q-44 15 -90 33t-91 36 q-48 20 -78 37t-42 37h-1zM369 364v184h72v-184h434v-60h-840v60h334zM747 738v-97q0 -20 -1.5 -46t-4 -54.5t-6.5 -57t-9 -52.5l-70 8q6 25 10 52.5t6.5 53.5t3.5 49.5t1 41.5v40h-531v62h601z" />
<glyph unicode="&#xacfc;" d="M764 430h145v-63h-145v-503h-71v914h71v-348zM629 99q-62 -6 -119 -10.5t-123.5 -7.5t-150 -4t-198.5 -1v62h102.5t90.5 1v291h71v-290q48 1 90.5 3t81.5 4t75.5 5.5t73.5 7.5zM540 690v-111q0 -36 -1.5 -78t-4.5 -83.5t-7.5 -78t-10.5 -60.5l-71 9q7 30 11.5 65.5 t7.5 71.5t4 72t1 68v62h-385v63h456z" />
<glyph unicode="&#xacfd;" d="M161 163h599v-307h-69v245h-530v62zM626 296q-46 -6 -101 -10t-125.5 -7t-159.5 -4.5t-203 -1.5v62h105.5t92.5 1v204h70v-203q53 1 97 2.5t81.5 4t71 5.5t65.5 6zM760 526h137v-63h-137v-246h-70v561h70v-252zM543 735v-93q0 -63 -7 -123t-17 -101l-70 9 q11 52 17.5 101.5t6.5 99.5v45h-375v62h445z" />
<glyph unicode="&#xad00;" d="M760 490h137v-63h-137v-327h-70v678h70v-288zM266 -63h519v-62h-590v271h71v-209zM626 270q-46 -6 -101 -10t-125.5 -7t-159.5 -4.5t-203 -1.5v62h105.5t92.5 1v204h70v-203q53 1 97 2.5t81.5 4t71 5.5t65.5 6zM543 730v-90q0 -68 -7 -130.5t-17 -103.5l-70 9 q11 52 17.5 104.5t6.5 106.5v42h-375v62h445z" />
<glyph unicode="&#xad04;" d="M760 240v-219h-508v-102h535v-59h-604v219h508v102h-513v59h582zM626 351q-46 -6 -101 -10t-125.5 -7t-159.5 -4.5t-203 -1.5v61h105.5t92.5 1v175h70v-174q53 1 97 2.5t81.5 4t71 5.5t65.5 6zM542 745v-94q0 -58 -5.5 -109t-13.5 -84l-70 9q9 44 14 86t5 90v41h-374v61 h444zM760 575h137v-62h-137v-219h-70v484h70v-203z" />
<glyph unicode="&#xad06;" d="M481 -139v377h279v-377h-279zM414 238v-217h-211v-100h56q19 0 42 1t47 2.5t46 3.5t39 4l5 -59q-38 -5 -89.5 -8.5t-102.5 -3.5h-109v218h212v99h-217v60h282zM626 351q-46 -6 -101 -10t-125.5 -7t-159.5 -4.5t-203 -1.5v61h105.5t92.5 1v175h70v-174q53 1 97 2.5t81.5 4 t71 5.5t65.5 6zM542 745v-94q0 -58 -5.5 -109t-13.5 -84l-70 9q9 44 14 86t5 90v41h-374v61h444zM760 575h137v-62h-137v-221h-70v486h70v-203zM547 179v-259h147v259h-147z" />
<glyph unicode="&#xad0c;" d="M188 187h572v-321h-572v321zM256 -71h436v195h-436v-195zM626 310q-46 -6 -101 -10t-125.5 -7t-159.5 -4.5t-203 -1.5v62h105.5t92.5 1v188h70v-187q53 1 97 2.5t81.5 4t71 5.5t65.5 6zM760 540h137v-63h-137v-236h-70v537h70v-238zM542 735v-92q0 -65 -6.5 -120.5 t-17.5 -97.5l-70 9q12 53 18 100.5t6 97.5v41h-374v62h444z" />
<glyph unicode="&#xad0d;" d="M760 218v-353h-573v353h69v-113h435v113h69zM691 -72v115h-435v-115h435zM626 321q-46 -6 -101 -10t-125.5 -7t-159.5 -4.5t-203 -1.5v62h105.5t92.5 1v188h70v-187q53 1 97 2.5t81.5 4t71 5.5t65.5 6zM760 543h137v-63h-137v-208h-70v506h70v-235zM542 735v-102 q0 -58 -6.5 -111t-14.5 -86l-70 9q9 44 15 88t6 92v48h-374v62h444z" />
<glyph unicode="&#xad0f;" d="M445 200h70v-49q0 -31 5 -53t17 -38.5t32 -30t50 -28.5q19 -10 43 -21t48.5 -22t49.5 -21t48 -19l-29 -57q-49 20 -97 42t-83 39q-50 25 -80 45.5t-39 39.5q-9 -19 -39 -39.5t-80 -45.5q-35 -17 -82.5 -39t-96.5 -42l-31 57q22 9 47.5 19t50.5 21t48.5 22t43.5 21 q30 15 50 28.5t32 30.5t17 38.5t5 52.5v49zM760 520h137v-63h-137v-296h-70v617h70v-258zM626 295q-46 -6 -101 -10t-125.5 -7t-159.5 -4.5t-203 -1.5v62h105.5t92.5 1v205h70v-204q53 1 97 2.5t81.5 4t71 5.5t65.5 6zM543 735v-93q0 -63 -7 -123t-17 -101l-70 9 q11 52 17.5 101.5t6.5 99.5v45h-375v62h445z" />
<glyph unicode="&#xad11;" d="M481 196q56 0 107.5 -11t90.5 -31.5t62.5 -51t23.5 -69.5v-30q0 -39 -23.5 -69.5t-62.5 -51t-90.5 -31.5t-107.5 -11t-107.5 11t-90.5 31.5t-62.5 51t-23.5 69.5v31q0 39 23.5 69.5t62.5 51t90.5 31t107.5 10.5zM481 -100q40 0 79 7t69.5 20.5t49 33.5t18.5 46v22 q0 26 -18.5 46t-49 33.5t-69.5 20.5t-79 7t-79 -6.5t-69.5 -20t-49 -33.5t-18.5 -46v-23q0 -26 18.5 -46t49 -33.5t69.5 -20.5t79 -7zM626 297q-46 -6 -101 -10t-125.5 -7t-159.5 -4.5t-203 -1.5v62h105.5t92.5 1v203h70v-202q53 1 97 2.5t81.5 4t71 5.5t65.5 6zM760 529 h137v-63h-137v-239h-70v551h70v-249zM543 735v-91q0 -63 -7 -123t-17 -101l-70 9q11 52 17.5 101.5t6.5 99.5v43h-375v62h445z" />
<glyph unicode="&#xad18;" d="M656 414h115v364h70v-914h-70v490h-115v-465h-70v873h70v-348zM539 112q-53 -4 -104.5 -6t-109.5 -3.5t-125.5 -2.5t-150.5 -1v61h82.5t72.5 1v258h70v-258q68 1 128.5 3.5t132.5 7.5zM471 684v-119q0 -29 -1 -63t-3 -69.5t-6 -71.5t-10 -68l-70 8q12 68 16 126.5 t4 121.5v73h-312v62h382z" />
<glyph unicode="&#xad1c;" d="M641 514h109v264h69v-670h-69v346h-109v-324h-69v636h69v-252zM293 -63h547v-62h-618v281h71v-219zM274 316q80 3 140 7t109 9l4 -59q-85 -9 -202 -15t-279 -6v61h83t75 1v199h70v-197zM463 715v-82q0 -30 -1 -61.5t-3.5 -62.5t-6 -59.5t-8.5 -51.5l-70 8q11 52 15 102.5 t4 108.5v36h-306v62h376z" />
<glyph unicode="&#xad20;" d="M819 234v-216h-515v-99h542v-59h-611v216h515v99h-520v59h589zM641 565h109v213h69v-490h-69v217h-109v-215h-69v476h69v-201zM274 381q80 3 140 7t109 9l4 -59q-85 -9 -202 -15t-279 -6v61h83t75 1v171h70v-169zM463 731v-70q0 -57 -3.5 -111.5t-14.5 -100.5l-70 8 q10 47 14 91.5t4 96.5v24h-306v62h376z" />
<glyph unicode="&#xad29;" d="M819 212v-347h-584v347h69v-109h446v109h69zM641 548h109v230h69v-512h-69v222h-109v-220h-69v498h69v-218zM750 -72v113h-446v-113h446zM274 356q80 3 140 7t109 9l4 -59q-85 -9 -202 -15t-279 -6v61h83t75 1v179h70v-177zM463 721v-76q0 -57 -4 -114.5t-15 -103.5 l-70 8q19 91 19 194v30h-306v62h376z" />
<glyph unicode="&#xad2c;" d="M641 541h109v237h69v-529h-69v232h-109v-230h-69v515h69v-225zM507 -138q-19 15 -45.5 37t-44.5 38q-27 24 -45.5 41t-26.5 31q-5 -9 -21.5 -25t-49.5 -42q-21 -17 -47 -36.5t-61 -44.5l-38 51q13 9 29 20.5l32 23t30 22.5t24 19q25 20 38.5 35t20 29.5t7.5 29.5t1 35v67 h69v-67q0 -27 3 -44t10.5 -31t21.5 -27t35 -32q11 -10 27.5 -23.5t30.5 -23.5q14 10 30.5 23.5t27.5 23.5q21 19 35 32t21.5 27t10.5 31t3 44v67h69v-67q0 -20 1 -35t7.5 -29.5t20 -29.5t38.5 -35q10 -8 24 -19t30 -22.5l32 -23t29 -20.5l-38 -51q-35 25 -61 44.5t-47 36.5 q-33 26 -49.5 42t-21.5 25q-8 -14 -26.5 -31t-45.5 -41q-18 -16 -44.5 -38t-45.5 -37zM274 336q80 3 140 7t109 9l4 -59q-85 -9 -202 -15t-279 -6v61h83t75 1v195h70v-193zM463 721v-77q0 -60 -4 -121t-15 -107l-70 8q11 52 15 100t4 104v31h-306v62h376z" />
<glyph unicode="&#xad2d;" d="M535 192q57 0 109.5 -10t92 -30t63.5 -50.5t24 -71.5v-28q0 -41 -24 -71.5t-63.5 -50.5t-92 -30t-109.5 -10t-109.5 10t-92.5 30t-63.5 50.5t-23.5 71.5v29q0 41 23.5 71.5t63.5 50.5t92.5 29.5t109.5 9.5zM535 -100q41 0 80.5 6.5t71 19.5t50.5 33t19 47v20q0 27 -19 47 t-50.5 33t-71 19.5t-80.5 6.5t-80.5 -6.5t-71 -19t-50.5 -32.5t-19 -47v-21q0 -27 19 -47t50.5 -33t71 -19.5t80.5 -6.5zM641 541h109v237h69v-564h-69v267h-109v-232h-69v517h69v-225zM273 335q80 3 140.5 7t109.5 9l4 -59q-85 -9 -202 -15t-279 -6v61h83t75 1v195h69v-193 zM463 721v-79q0 -60 -4 -121t-15 -107l-70 8q11 52 15 100t4 104v33h-306v62h376z" />
<glyph unicode="&#xad34;" d="M805 -136h-71v914h71v-914zM331 140q101 2 180 7t153 13l6 -61q-62 -6 -122.5 -10.5t-131 -7.5t-157 -4t-201.5 -1v62h107t95 1v291h71v-290zM572 690v-115q0 -36 -1.5 -78t-4.5 -83t-7.5 -77.5t-10.5 -60.5l-71 9q7 30 11.5 65t7.5 71.5t4 72t1 67.5v66h-390v63h461z " />
<glyph unicode="&#xad35;" d="M187 163h604v-307h-69v245h-535v62zM327 336q55 1 100.5 3t84.5 4.5t73 5.5t66 7l6 -60q-44 -5 -99 -9.5t-127 -7.5t-164 -5t-210 -2v62h106.5t93.5 1v205h70v-204zM565 735v-93q0 -63 -7 -123t-17 -101l-70 9q11 52 17.5 101.5t6.5 99.5v45h-377v62h447zM791 217h-70 v561h70v-561z" />
<glyph unicode="&#xad38;" d="M279 -63h536v-62h-607v271h71v-209zM328 311q55 1 100.5 3t84.5 4.5t73 5.5t66 7l6 -60q-44 -5 -99 -9.5t-127 -7.5t-164 -5t-210 -2v62h106.5t93.5 1v204h70v-203zM792 100h-70v678h70v-678zM566 730v-90q0 -68 -7 -130.5t-17 -103.5l-70 9q11 52 17.5 104.5t6.5 106.5 v42h-377v62h447z" />
<glyph unicode="&#xad3c;" d="M792 240v-219h-513v-102h540v-59h-609v219h513v102h-518v59h587zM658 352q-44 -5 -99 -9.5t-127 -7.5t-164 -5t-210 -2v61h106.5t93.5 1v175h70v-174q55 1 100.5 3t84.5 4.5t73 5.5t66 7zM566 745v-94q0 -58 -5.5 -109t-13.5 -84l-70 9q9 44 14 86t5 90v41h-377v61h447z M792 294h-70v484h70v-484z" />
<glyph unicode="&#xad44;" d="M208 187h583v-321h-583v321zM276 -71h447v195h-447v-195zM327 351q55 1 100.5 3t84.5 4.5t73 5.5t66 7l6 -60q-44 -5 -99 -9.5t-127 -7.5t-164 -5t-210 -2v62h106.5t93.5 1v190h70v-189zM565 735v-92q0 -65 -6.5 -120.5t-17.5 -97.5l-70 9q12 53 18 100.5t6 97.5v41h-377 v62h447zM791 241h-70v537h70v-537z" />
<glyph unicode="&#xad45;" d="M792 218v-353h-582v353h69v-113h444v113h69zM723 -72v115h-444v-115h444zM658 322q-44 -5 -99 -9.5t-127 -7.5t-164 -5t-210 -2v62h106.5t93.5 1v179h70v-178q55 1 100.5 3t84.5 4.5t73 5.5t66 7zM566 735v-102q0 -58 -6.5 -111t-14.5 -86l-70 9q9 44 15 88t6 92v48h-377 v62h447zM792 272h-70v506h70v-506z" />
<glyph unicode="&#xad47;" d="M458 211h70v-55q0 -31 5.5 -53.5t18 -39.5t32.5 -31.5t49 -29.5q39 -20 91 -42.5t97 -40.5l-29 -57q-49 20 -98 43t-83 40q-101 51 -117 88q-18 -38 -119 -88q-34 -17 -83 -40t-98 -43l-30 57q22 9 47.5 19.5t50 21t48 21.5t43.5 21q29 15 49 29.5t32.5 32t18 39.5 t5.5 53v55zM328 335q55 1 100.5 3t84.5 4.5t73 5.5t66 7l6 -60q-44 -5 -99 -9.5t-127 -7.5t-164 -5t-210 -2v62h106.5t93.5 1v205h70v-204zM566 735v-97q0 -63 -7 -123t-17 -101l-70 9q11 52 17.5 101.5t6.5 99.5v49h-377v62h447zM792 171h-70v607h70v-607z" />
<glyph unicode="&#xad49;" d="M513 196q56 0 107.5 -11t90.5 -31.5t62.5 -51t23.5 -69.5v-30q0 -39 -23.5 -69.5t-62.5 -51t-90.5 -31.5t-107.5 -11t-107.5 11t-90.5 31.5t-62.5 51t-23.5 69.5v31q0 39 23.5 69.5t62.5 51t90.5 31t107.5 10.5zM513 -100q40 0 79 7t69.5 20.5t49 33.5t18.5 46v22 q0 26 -18.5 46t-49 33.5t-69.5 20.5t-79 7t-79 -6.5t-69.5 -20t-49 -33.5t-18.5 -46v-23q0 -26 18.5 -46t49 -33.5t69.5 -20.5t79 -7zM328 338q55 1 100.5 3t84.5 4.5t73 5.5t66 7l6 -60q-44 -5 -99 -9.5t-127 -7.5t-164 -5t-210 -2v62h106.5t93.5 1v203h70v-202zM566 735 v-93q0 -63 -7 -123t-17 -101l-70 9q11 52 17.5 101.5t6.5 99.5v45h-377v62h447zM792 223h-70v555h70v-555z" />
<glyph unicode="&#xad50;" d="M237 54v335h71v-335h155v335h71v-335h341v-61h-840v61h202zM655 181q18 93 24.5 181t6.5 186v83h-545v62h617v-108q0 -63 -1.5 -117t-5.5 -103.5t-9.5 -96.5t-14.5 -95z" />
<glyph unicode="&#xad54;" d="M259 289v226h71v-226h139v226h71v-226h335v-60h-840v60h224zM753 728v-125q0 -27 -2 -57t-5.5 -60t-8 -59t-9.5 -53l-70 8q11 52 17.5 104.5t6.5 100.5v79h-536v62h607zM231 -63h541v-62h-612v268h71v-206z" />
<glyph unicode="&#xad58;" d="M750 245v-221h-521v-105h548v-59h-617v222h521v104h-526v59h595zM259 396v172h71v-172h139v172h71v-172h335v-60h-840v60h224zM753 748v-84q0 -20 -1 -46t-3.5 -54t-6.5 -56.5t-9 -52.5l-70 8q11 52 15 100.5t4 81.5v41h-536v62h607z" />
<glyph unicode="&#xad61;" d="M753 224v-359h-596v359h69v-116h458v116h69zM259 364v188h71v-188h139v188h71v-188h335v-60h-840v60h224zM753 743v-97q0 -20 -1 -46t-3.5 -54.5t-6.5 -57t-9 -52.5l-70 8q11 52 15 101t4 82v54h-536v62h607zM684 -72v118h-458v-118h458z" />
<glyph unicode="&#xad63;" d="M259 329v202h71v-202h139v202h71v-202h335v-60h-840v60h224zM753 738v-99q0 -27 -2 -57t-5.5 -60t-8 -59t-9.5 -53l-70 8q11 52 17.5 104.5t6.5 100.5v53h-536v62h607zM455 29q-8 -17 -33 -33.5t-51 -30.5q-63 -32 -122 -57.5t-113 -46.5l-29 55q62 23 116 46t102 47 q27 14 45.5 25.5t29.5 26.5t15.5 36t4.5 53v48h70v-48q0 -32 4.5 -53t15.5 -36t29.5 -26.5t45.5 -25.5q48 -24 102 -47t116 -46l-29 -55q-54 21 -113 46.5t-122 57.5q-26 14 -51 30.5t-33 33.5z" />
<glyph unicode="&#xad6c;" d="M641 299q15 68 23 144.5t8 142.5v71h-527v61h599v-109q0 -80 -8 -160.5t-22 -149.5h161v-61h-385v-374h-71v374h-384v61h606z" />
<glyph unicode="&#xad6d;" d="M144 167h273v179h-382v60h613q15 60 21 115.5t6 106.5v48h-529v62h599v-114q0 -53 -6.5 -107.5t-17.5 -110.5h154v-60h-388v-179h267v-310h-70v249h-540v61z" />
<glyph unicode="&#xad70;" d="M745 733v-129q0 -52 -6 -111t-18 -116h154v-60h-375v-236h-70v236h-395v60h613q14 60 20.5 120t6.5 111v63h-529v62h599zM231 -63h539v-62h-610v294h71v-232z" />
<glyph unicode="&#xad73;" d="M745 738v-113q0 -51 -5.5 -103.5t-16.5 -106.5h152v-60h-386v-163h266v-61h-529v-204h546v-61h-615v326h262v163h-384v60h615q14 57 19.5 110.5t5.5 103.5v47h-529v62h599z" />
<glyph unicode="&#xad74;" d="M745 748v-108q0 -94 -20 -197h150v-60h-385v-132h260v-224h-521v-108h548v-59h-617v225h521v107h-526v59h265v132h-385v60h618q12 54 17 104t5 97v42h-529v62h599z" />
<glyph unicode="&#xad75;" d="M745 748v-109q0 -93 -20 -196h150v-60h-385v-137h273v-395h-69v335h-214v35h-50v-195h-225v-106h120q19 0 42 1t47 2.5t46 3.5t39 4l5 -58q-38 -5 -89.5 -8.5t-102.5 -3.5h-173v222h225v104h-230v59h286v137h-385v60h618q12 54 17 103.5t5 96.5v43h-529v62h599z" />
<glyph unicode="&#xad76;" d="M489 -140v365h-70v-198h-212v-107h57q19 0 42 1t47 2.5t46 3.5t39 4l5 -59q-38 -5 -89.5 -8.5t-102.5 -3.5h-110v225h212v105h-217v60h283v133h-384v60h618q12 54 17 103.5t5 96.5v43h-529v62h599v-109q0 -93 -20 -196h150v-60h-386v-133h279v-390h-279zM555 191v-272 h147v272h-147z" />
<glyph unicode="&#xad7b;" d="M745 748v-109q0 -93 -20 -196h150v-60h-385v-136h-70v136h-385v60h618q12 54 17 103.5t5 96.5v43h-529v62h599zM475 -16q0 22 10 43t29.5 37.5t48 26.5t65.5 10t65.5 -10t48 -26.5t29.5 -37.5t10 -43v-24q0 -22 -10 -43t-29.5 -37.5t-48 -26.5t-65.5 -10t-65.5 10 t-48 26.5t-29.5 37.5t-10 43v24zM408 249v-222h-206v-107h59q19 0 42 1t47 2.5t46 3.5t39 4l6 -58q-39 -6 -90.5 -9.5t-102.5 -3.5h-111v225h206v104h-211v60h276zM661 195h137v-56h-341v56h135v89h69v-89zM720 -19q0 25 -24 45t-68 20t-68 -20t-24 -45v-18q0 -25 24 -45 t68 -20t68 20t24 45v18z" />
<glyph unicode="&#xad7c;" d="M745 738v-112q0 -51 -5.5 -103.5t-16.5 -106.5h152v-60h-386v-159h263v-331h-594v331h261v159h-384v60h615q14 57 19.5 110.5t5.5 103.5v46h-529v62h599zM226 -71h458v206h-458v-206z" />
<glyph unicode="&#xad7d;" d="M753 232v-367h-596v367h69v-125h458v125h69zM745 743v-112q0 -51 -5.5 -103.5t-16.5 -106.5h152v-60h-385v-171h-70v171h-385v60h615q14 57 19.5 110.5t5.5 103.5v46h-529v62h599zM684 -72v117h-458v-117h458z" />
<glyph unicode="&#xad7f;" d="M745 741v-118q0 -108 -24 -220h154v-60h-385v-139h-70v139h-385v60h613q14 60 20.5 116t6.5 108v52h-529v62h599zM455 26q-10 -17 -31.5 -32t-52.5 -31q-58 -29 -120.5 -55t-116.5 -46l-26 56q63 23 113.5 43t104.5 46q27 13 45.5 25.5t29 28t15 35.5t4.5 50v25h70v-25 q0 -30 4.5 -50t15 -35.5t29 -28t45.5 -25.5q54 -26 104.5 -46t113.5 -43l-26 -56q-54 20 -116.5 46t-120.5 55q-31 16 -52.5 31t-31.5 32z" />
<glyph unicode="&#xad81;" d="M745 738v-119q0 -102 -23 -212h153v-60h-385v-145q51 -3 96.5 -15.5t79 -33.5t53.5 -50t20 -66v-30q0 -40 -23 -71t-62 -52.5t-90.5 -32.5t-108.5 -11t-108.5 11t-90.5 32.5t-62 52.5t-23 71v31q0 37 19.5 66t53.5 50t79.5 33t96.5 15v145h-385v60h615q14 58 19.5 111.5 t5.5 104.5v53h-529v62h599zM455 -100q40 0 79 7t69.5 21t49 35t18.5 48v22q0 27 -18.5 48t-49 35t-69.5 21t-79 7q-41 0 -79.5 -7t-69 -21t-49 -34.5t-18.5 -47.5v-23q0 -27 18.5 -48t49 -35t69 -21t79.5 -7z" />
<glyph unicode="&#xad82;" d="M651 420q13 57 18.5 109.5t5.5 101.5v45h-529v62h599v-111q0 -51 -5.5 -102.5t-16.5 -104.5h152v-60h-386v-128h-70v128h-384v60h616zM455 4q-12 -20 -43.5 -37t-76.5 -37q-45 -18 -91.5 -36t-90.5 -33l-25 55q47 16 96 34t91 35q31 13 51.5 24.5t32.5 24t17 27t5 34.5 v31h-286v61h640v-61h-286v-31q0 -20 5 -35t17 -27.5t32.5 -23.5t51.5 -24q42 -17 91 -35t96 -34l-25 -55q-44 15 -90 33t-91 36q-48 20 -78 37t-42 37h-1z" />
<glyph unicode="&#xad88;" d="M665 314q-70 -7 -138.5 -11.5t-154.5 -7.5v-402h-72v400q-53 -1 -113.5 -1.5t-132.5 -0.5v62q127 0 227 1.5t181 5.5q6 26 10.5 56t7.5 60.5t5 59.5t2 54v71h-377v62h447v-117q0 -28 -1.5 -59.5t-4.5 -63.5t-7.5 -62.5t-9.5 -56.5q35 2 65.5 5t59.5 6zM729 170v608h71 v-914h-71v243h-220v63h220z" />
<glyph unicode="&#xad89;" d="M653 410q-62 -8 -132.5 -12.5t-161.5 -7.5v-182h-71v181q-53 -2 -111 -2h-125v61q135 0 232.5 1.5t174.5 5.5q11 50 14.5 95t3.5 77v49h-352v63h421v-93q0 -18 -1 -40.5t-3 -47.5t-5.5 -50.5t-7.5 -48.5q32 2 60.5 4.5t57.5 6.5zM184 151h608v-295h-69v233h-539v62z M722 330v448h70v-573h-70v65h-206v60h206z" />
<glyph unicode="&#xad8c;" d="M653 386q-62 -8 -132.5 -12.5t-161.5 -7.5v-179h-71v178q-53 -2 -111 -2h-125v61q135 0 232 1.5t174 5.5q10 51 14.5 94.5t4.5 87.5v58h-352v63h421v-112q0 -48 -4.5 -93.5t-12.5 -93.5q32 2 60.5 4.5t57.5 6.5zM722 289v489h70v-707h-70v156h-206v62h206zM280 -63h535 v-62h-606v260h71v-198z" />
<glyph unicode="&#xad90;" d="M792 218v-208h-514v-92h541v-59h-610v209h514v91h-519v59h588zM653 440q-62 -8 -132.5 -12.5t-161.5 -7.5v-158h-71v157q-53 -2 -111 -2h-125v61q135 0 233 1.5t175 5.5q11 48 14 90.5t3 76.5v29h-352v63h421v-75q0 -38 -3.5 -87.5t-11.5 -92.5q31 2 59.5 5t56.5 6z M792 261h-70v52h-206v59h206v406h70v-517z" />
<glyph unicode="&#xad9c;" d="M653 414q-62 -8 -132.5 -12.5t-161.5 -7.5v-167h-71v166q-53 -2 -111 -2h-125v61q135 0 232 1.5t174 5.5q11 51 15 98.5t4 79.5v39h-352v63h421v-85q0 -18 -1 -41t-3 -48.5t-5.5 -51.5t-7.5 -50q32 2 60.5 4.5t57.5 6.5zM490 -139q-19 15 -45.5 37t-44.5 38 q-27 24 -45.5 41t-26.5 31q-5 -9 -21.5 -25t-49.5 -42q-21 -17 -47 -36.5t-61 -44.5l-38 51q13 9 29 20.5l32 23t30 22.5t24 19q25 20 38.5 35t20 29.5t7.5 29.5t1 35v54h69v-54q0 -27 3 -44t10.5 -31t21.5 -27t35 -32q11 -10 27.5 -23.5t30.5 -23.5q14 10 30.5 23.5 t27.5 23.5q21 19 35 32t21.5 27t10.5 31t3 44v54h69v-54q0 -20 1 -35t7.5 -29.5t20 -29.5t38.5 -35q10 -8 24 -19t30 -22.5l32 -23t29 -20.5l-38 -51q-35 25 -61 44.5t-47 36.5q-33 26 -49.5 42t-21.5 25q-8 -14 -26.5 -31t-45.5 -41q-18 -16 -44.5 -38t-45.5 -37zM722 341 v437h70v-558h-70v61h-206v60h206z" />
<glyph unicode="&#xad9d;" d="M513 -160q-59 0 -110.5 10t-90 30t-61 49t-22.5 67v33q0 37 22.5 66t61 49t90 30t110.5 10t110.5 -10t90 -30t61 -49t22.5 -67v-32q0 -38 -22.5 -67t-61 -49t-90 -30t-110.5 -10zM653 413q-62 -8 -132.5 -12.5t-161.5 -7.5v-188h-71v187q-53 -2 -111 -2h-125v61 q135 0 232.5 1.5t174.5 5.5q11 50 14.5 95t3.5 77v46h-352v63h421v-90q0 -35 -4 -87t-12 -100q31 2 59.5 4.5t57.5 6.5zM513 124q-43 0 -82 -7t-69 -19.5t-47.5 -31t-17.5 -42.5v-24q0 -24 17.5 -42.5t47.5 -31t69 -19.5t82 -7t82 7t69 19.5t47.5 31t17.5 42.5v24 q0 24 -17.5 42.5t-47.5 31t-69 19.5t-82 7zM722 335v443h70v-571h-70v68h-206v60h206z" />
<glyph unicode="&#xada4;" d="M525 312q-49 -3 -101.5 -5t-113.5 -4v-380h-71v379q-46 -1 -96.5 -1h-108.5v62h101.5t86 0.5t74 1t66.5 1.5q14 57 20 118.5t6 124.5v42h-305v63h375v-89q0 -67 -5.5 -133t-17.5 -123q21 1 42.5 1.5t44.5 2.5zM582 191v571h70v-873h-70v240h-165v62h165zM826 -136h-70 v914h70v-914z" />
<glyph unicode="&#xadb7;" d="M523 418q-42 -5 -94.5 -8.5t-119.5 -6.5v-231h-71v228q-46 -2 -96.5 -2h-108.5v61q111 0 194.5 2t149.5 5q15 84 15 174v31h-305v62h374v-76q0 -46 -3.5 -94t-9.5 -92l71 6zM482 183h70v-38q0 -29 5.5 -49.5t17.5 -36.5t32 -29.5t49 -28.5q19 -10 43 -20.5t48.5 -21 t49.5 -21t48 -19.5l-28 -58q-49 20 -98.5 42.5t-83.5 39.5q-99 48 -117 84q-17 -35 -119 -84q-34 -17 -83.5 -39.5t-98.5 -42.5l-29 58q22 9 47.5 19.5t50.5 21t48.5 21t43.5 20.5q28 14 47.5 27.5t32 29.5t18.5 37t6 50v38zM654 221h-69v61h-167v59h167v425h69v-545z M816 141h-69v637h69v-637z" />
<glyph unicode="&#xadc0;" d="M665 301q-68 -7 -136 -11t-150 -7v-390h-72v387q-54 -1 -116 -1.5t-137 -0.5v62q128 0 228 1.5t181 5.5q6 26 11 57t8 62.5t5 62t2 55.5v76h-381v63h451v-122q0 -29 -1.5 -61.5t-4.5 -65.5t-7.5 -64.5t-9.5 -58.5q34 2 64.5 5t58.5 6zM800 -136h-71v914h71v-914z" />
<glyph unicode="&#xadc1;" d="M653 395q-61 -8 -131.5 -12.5t-160.5 -7.5v-167h-71v166q-53 -2 -111.5 -2h-126.5v61q135 0 232.5 1.5t174.5 5.5q11 50 14.5 95t3.5 77v64h-353v63h422v-108q0 -35 -4 -87.5t-12 -99.5q31 2 59.5 4.5t57.5 6.5zM184 151h608v-295h-69v233h-539v62zM792 205h-70v573h70 v-573z" />
<glyph unicode="&#xadc4;" d="M653 370q-62 -8 -132.5 -12.5t-161.5 -7.5v-166h-71v165q-53 -2 -111 -2h-125v61q135 0 232 1.5t174 5.5q9 47 14 94t5 90v72h-353v63h422v-120q0 -44 -4 -96t-12 -99q31 2 59.5 4.5t57.5 6.5zM280 -63h535v-62h-606v257h71v-195zM792 71h-70v707h70v-707z" />
<glyph unicode="&#xadc8;" d="M792 232v-215h-514v-99h541v-59h-610v216h514v98h-519v59h588zM653 428q-61 -8 -131.5 -12.5t-160.5 -7.5v-132h-71v131q-53 -2 -111.5 -2h-126.5v61q135 0 232.5 1.5t174.5 5.5q11 49 14.5 92.5t3.5 78.5v37h-353v63h422v-83q0 -39 -4 -89.5t-12 -94.5q32 2 60 5t57 6z M792 275h-70v503h70v-503z" />
<glyph unicode="&#xadd0;" d="M209 173h583v-307h-583v307zM653 410q-61 -8 -131.5 -12.5t-160.5 -7.5v-160h-71v159q-53 -2 -111.5 -2h-126.5v61q135 0 233 1.5t175 5.5q11 49 14 93.5t3 76.5v51h-353v63h422v-95q0 -17 -1 -39t-3 -47t-5 -50.5t-7 -48.5q32 2 60 5t57 6zM277 -71h447v181h-447v-181z M792 227h-70v551h70v-551z" />
<glyph unicode="&#xadd1;" d="M792 202v-337h-582v337h69v-109h444v109h69zM653 415q-61 -8 -131.5 -12.5t-160.5 -7.5v-153h-71v152q-53 -2 -111.5 -2h-126.5v61q135 0 233 1.5t175 5.5q10 48 13.5 91.5t3.5 74.5v55h-353v63h422v-99q0 -17 -1 -38.5t-3 -45.5t-4.5 -49t-6.5 -48q31 2 59.5 5t56.5 6z M723 -72v103h-444v-103h444zM792 246h-70v532h70v-532z" />
<glyph unicode="&#xadd3;" d="M653 395q-63 -8 -137 -13t-168 -7v-215h-71v213q-51 -1 -106.5 -1h-118.5v61q135 0 232.5 1.5t174.5 5.5q9 45 13.5 89t4.5 84v63h-353v63h422v-111q0 -42 -3.5 -90.5t-11.5 -93.5q31 2 59.5 5t56.5 6zM458 216h70v-64q0 -31 5 -53t17 -38.5t32 -30t50 -28.5 q19 -10 43 -21t48.5 -22t49.5 -21t48 -19l-29 -57q-49 20 -97 42t-83 39q-50 25 -80 45.5t-39 39.5q-9 -19 -39 -39.5t-80 -45.5q-35 -17 -82.5 -39t-96.5 -42l-31 57q22 9 47.5 19t50.5 21t48.5 22t43.5 21q30 15 50 28.5t32 30.5t17 38.5t5 52.5v64zM792 142h-70v636h70 v-636z" />
<glyph unicode="&#xaddc;" d="M641 301q15 68 23 144t8 141v71h-527v61h599v-109q0 -79 -8 -159t-22 -149h161v-61h-224v-375h-71v375h-250v-375h-71v375h-224v61h606z" />
<glyph unicode="&#xade0;" d="M650 387q14 59 19.5 116t5.5 107v61h-529v62h599v-127q0 -51 -5.5 -107.5t-16.5 -111.5h152v-60h-229v-241h-69v241h-177v-241h-69v241h-296v60h615zM227 -63h551v-62h-622v292h71v-230z" />
<glyph unicode="&#xade4;" d="M745 748v-107q0 -47 -4.5 -95t-14.5 -98h149v-60h-243v-137h118v-224h-521v-108h548v-59h-617v225h521v107h-526v59h123v137h-243v60h619q11 53 16 102t5 95v41h-529v62h599zM347 251h216v137h-216v-137z" />
<glyph unicode="&#xadf8;" d="M632 152q10 49 17 94.5t11.5 91t7 93t2.5 100.5v95h-529v62h602v-120q0 -126 -9 -228t-28 -197zM875 54v-61h-840v61h840z" />
<glyph unicode="&#xadf9;" d="M746 736v-131q0 -103 -23 -215h152v-61h-840v61h615q14 59 20 113.5t6 105.5v65h-531v62h601zM142 192h612v-335h-70v274h-542v61z" />
<glyph unicode="&#xadfc;" d="M746 728v-142q0 -52 -6 -115t-18 -121h153v-61h-840v61h613q14 61 20.5 125t6.5 115v76h-530v62h601zM231 -63h539v-62h-610v298h71v-236z" />
<glyph unicode="&#xadff;" d="M746 736v-126q0 -103 -23 -215h152v-61h-840v61h615q14 59 20 113.5t6 105.5v60h-531v62h601zM157 207h598v-61h-529v-219h546v-61h-615v341z" />
<glyph unicode="&#xae00;" d="M750 264v-231h-521v-113h548v-60h-617v232h521v112h-526v60h595zM746 745v-102q0 -48 -6.5 -103.5t-15.5 -103.5h151v-61h-840v61h615q13 54 19 107t6 104v36h-530v62h601z" />
<glyph unicode="&#xae01;" d="M746 745v-102q0 -48 -6.5 -103.5t-15.5 -103.5h151v-61h-840v61h615q13 54 19 107t6 104v36h-530v62h601zM429 262v-229h-222v-114h112q19 0 43 1t49 2.5t47.5 3.5t39.5 4l5 -58q-38 -5 -90.5 -8.5t-101.5 -3.5h-170v230h222v113h-227v59h293zM764 262v-412h-69v351h-216 v61h285z" />
<glyph unicode="&#xae08;" d="M158 206h594v-340h-594v340zM746 736v-131q0 -102 -23 -212h152v-61h-840v61h616q14 58 19.5 111.5t5.5 104.5v65h-531v62h601zM226 -71h458v214h-458v-214z" />
<glyph unicode="&#xae09;" d="M753 246v-381h-596v381h69v-129h458v129h69zM651 403q14 57 19.5 110.5t5.5 103.5v62h-531v62h601v-128q0 -51 -5.5 -103.5t-16.5 -106.5h151v-61h-840v61h616zM684 -72v127h-458v-127h458z" />
<glyph unicode="&#xae0b;" d="M651 373q14 57 19.5 110.5t5.5 103.5v87h-531v62h601v-153q0 -51 -5.5 -103.5t-16.5 -106.5h151v-61h-840v61h616zM456 30q-3 -7 -11.5 -15t-20.5 -15.5t-26 -15t-27 -14.5q-29 -15 -60.5 -30.5t-62.5 -29.5t-59.5 -26.5t-52.5 -22.5l-29 55q25 10 55 22.5t60 26 t56.5 26.5t44.5 22q33 17 52 30.5t29 28.5t13 33t3 45v72h70v-72q0 -27 3.5 -46t13.5 -33.5t28.5 -27.5t49.5 -29q48 -24 102.5 -49t115.5 -49l-29 -54q-48 20 -110 48.5t-125 60.5q-26 14 -51.5 29.5t-30.5 29.5h-1z" />
<glyph unicode="&#xae0d;" d="M455 213q58 0 109.5 -11t90.5 -32t61.5 -52.5t22.5 -72.5v-36q0 -41 -22.5 -72.5t-61.5 -52.5t-90.5 -32t-109.5 -11t-109.5 11t-90.5 32t-61.5 52.5t-22.5 72.5v36q0 42 22.5 73.5t61.5 52.5t90.5 31.5t109.5 10.5zM746 735v-131q0 -103 -23 -215h152v-61h-840v61h615 q14 59 20 113.5t6 105.5v65h-531v62h601zM455 -99q41 0 80 7.5t69 22t48.5 35t18.5 47.5v28q0 27 -18.5 47.5t-48.5 35t-69 22t-80 7.5t-80 -7.5t-69 -22t-48.5 -35t-18.5 -47.5v-28q0 -27 18.5 -47.5t48.5 -35t69 -22t80 -7.5z" />
<glyph unicode="&#xae14;" d="M805 -136h-71v914h71v-914zM670 106q-62 -6 -122.5 -10.5t-131 -7.5t-157 -4t-201.5 -1v62q108 0 194.5 1t158.5 3.5t133.5 7t119.5 10.5zM570 684v-128q0 -37 -1.5 -77.5t-5 -79.5t-8 -73.5t-10.5 -58.5l-71 9q14 61 19.5 131.5t5.5 134.5v79h-391v63h462z" />
<glyph unicode="&#xae30;" d="M787 -136h-71v914h71v-914zM82 129q115 66 183 113.5t103 89t45.5 83.5t10.5 98v115h-332v64h401v-180q0 -46 -5 -83t-19.5 -70t-40.5 -64t-67.5 -65t-101 -72.5t-140.5 -85.5z" />
<glyph unicode="&#xae31;" d="M200 194h588v-337h-70v275h-518v62zM788 248h-70v530h70v-530zM78 301q80 34 137.5 60.5t96 50t61 45t34 44.5t15 49.5t3.5 59.5v51h-316v62h385v-119q0 -63 -14 -107.5t-55.5 -83t-118 -78t-201.5 -92.5z" />
<glyph unicode="&#xae34;" d="M788 124h-70v654h70v-654zM299 -63h512v-62h-583v298h71v-236zM78 274q80 35 137 62.5t95.5 51t61 45t34.5 44.5t15.5 49.5t3.5 59.5v70h-316v62h385v-136q0 -61 -12.5 -105t-53 -83.5t-117 -81t-204.5 -96.5z" />
<glyph unicode="&#xae37;" d="M788 263h-70v515h70v-515zM229 209h562v-62h-492v-219h509v-62h-579v343zM78 305q79 33 135.5 59.5t95 49.5t61.5 44.5t35 45t16 50t4 60.5v47h-316v62h385v-115q0 -42 -5.5 -75t-20.5 -61t-42 -53t-70 -51t-104.5 -55t-144.5 -65z" />
<glyph unicode="&#xae38;" d="M788 322h-70v456h70v-456zM788 268v-233h-490v-114h514v-60h-583v233h490v113h-495v61h564zM79 352q79 30 135.5 54.5t95 46t61.5 41.5t35 42.5t15.5 48.5t3.5 60v30h-316v62h385v-96q0 -43 -5.5 -76t-21 -61t-43 -52.5t-70.5 -49t-104.5 -50.5t-144.5 -58z" />
<glyph unicode="&#xae3a;" d="M788 316h-70v462h70v-462zM79 353q79 31 135.5 55t95 45t61.5 41.5t35 42.5t15.5 48t3.5 60v30h-316v62h385v-96q0 -43 -5.5 -76t-21 -61t-43 -52t-70.5 -48.5t-104.5 -50.5t-144.5 -58zM510 -139v401h278v-401h-278zM576 203v-283h146v283h-146zM443 262v-229h-213v-112 h58q19 0 42 1t47 2.5t46 3.5t39 4l5 -59q-38 -5 -89.5 -8.5t-102.5 -3.5h-111v230h213v111h-218v60h284z" />
<glyph unicode="&#xae40;" d="M788 268h-70v510h70v-510zM229 214h559v-348h-559v348zM297 -71h423v222h-423v-222zM78 306q79 33 135.5 59.5t95 49.5t61.5 44.5t35 45t16 50t4 60.5v46h-316v62h385v-114q0 -42 -5.5 -75.5t-21 -61.5t-42.5 -53t-70.5 -51t-105 -55t-144.5 -65z" />
<glyph unicode="&#xae41;" d="M788 259v-394h-558v394h69v-129h420v129h69zM79 338q79 30 135.5 54.5t95 46t61.5 41.5t35 42.5t15.5 48.5t3.5 60v30h-316v62h385v-96q0 -43 -5.5 -76t-21 -61t-43 -52.5t-70.5 -49t-104.5 -50.5t-144.5 -58zM719 -72v140h-420v-140h420zM788 313h-70v465h70v-465z" />
<glyph unicode="&#xae43;" d="M788 196h-70v582h70v-582zM465 237h70v-81q0 -31 5.5 -53t18 -39.5t32.5 -31.5t49 -29q39 -20 91 -43t97 -41l-29 -57q-49 20 -98 43.5t-83 40.5q-100 50 -118 87q-18 -37 -118 -87q-34 -17 -83 -40.5t-98 -43.5l-30 57q22 9 47.5 19.5t50 21.5t48 22t43.5 21 q28 14 47.5 28t32.5 31.5t19 40t6 53.5v81zM78 277q80 35 137 62.5t95.5 51t61 45t34.5 44.5t15.5 49.5t3.5 59.5v68h-316v62h385v-134q0 -61 -12.5 -105t-53 -83.5t-117 -81t-204.5 -96.5z" />
<glyph unicode="&#xae45;" d="M788 240h-70v538h70v-538zM516 220q56 0 106.5 -12t88.5 -34t60 -53.5t22 -70.5v-39q0 -39 -22 -71t-60 -54t-88.5 -34t-106.5 -12t-106.5 12t-88.5 34t-60 54t-22 71v39q0 40 22 72t60 53.5t88.5 33t106.5 11.5zM516 -100q40 0 77.5 7.5t67 22t47 35.5t17.5 48v34 q0 27 -17.5 48t-47 35.5t-67 22t-77.5 7.5t-77.5 -7.5t-67 -22t-47 -35.5t-17.5 -48v-34q0 -27 17.5 -48t47 -35.5t67 -22t77.5 -7.5zM78 298q79 33 135.5 59.5t95 49.5t61.5 44.5t35.5 45t16 50t3.5 60.5v51h-316v62h385v-119q0 -42 -5.5 -75t-20.5 -61t-42 -53t-70 -51 t-104.5 -55t-144.5 -65z" />
<glyph unicode="&#xae46;" d="M502 29q-11 -21 -41.5 -43t-78.5 -45q-44 -21 -90 -41t-91 -38l-26 54q48 18 96 39t90 41q58 28 82 57t24 68v37h-264v61h594v-61h-261v-37q0 -39 23.5 -68t82.5 -57q42 -20 90 -41t96 -39l-26 -54q-45 18 -91 38t-90 41q-94 46 -119 88zM78 311q79 32 135.5 58t95 49 t61.5 44t35.5 44.5t16 50t3.5 60.5v44h-316v62h385v-111q0 -63 -14 -107.5t-55.5 -83t-118 -77.5t-201.5 -91zM788 273h-70v505h70v-505z" />
<glyph unicode="&#xae4a;" d="M197 218h604v-60h-120v-232h124v-60h-611v60h123v232h-120v60zM78 311q79 32 135.5 58t95 49t61.5 44t35.5 44.5t16 50t3.5 60.5v44h-316v62h385v-111q0 -63 -14 -107.5t-55.5 -83t-118 -77.5t-201.5 -91zM385 -74h228v232h-228v-232zM788 272h-70v506h70v-506z" />
<glyph unicode="&#xae4c;" d="M753 432h139v-63h-139v-505h-71v914h71v-346zM280 84q67 76 106 128.5t58 94t24 77.5t5 81v162h-139v64h207v-229q0 -54 -6 -96.5t-27.5 -88t-63.5 -101t-113 -136.5zM32 168q47 48 79.5 84.5t53.5 66t32.5 53.5t17 47t6.5 47.5t1 54.5v106h-158v64h226v-173 q0 -36 -2 -65t-9 -55.5t-20 -53.5t-36.5 -59t-58 -71t-83.5 -91z" />
<glyph unicode="&#xae4d;" d="M178 188h575v-331h-70v269h-505v62zM753 552h135v-62h-135v-248h-70v536h70v-226zM295 307q44 37 75 65t51.5 51t32 44t17 43t7 48t1.5 60v44h-142v61h209v-115q0 -49 -4.5 -87.5t-25 -76.5t-62.5 -81.5t-117 -102.5zM40 358q66 50 103.5 83t56 60.5t23 55.5t4.5 68v37 h-157v61h223v-107q0 -41 -6 -73.5t-28 -66.5t-64.5 -73.5t-115.5 -93.5z" />
<glyph unicode="&#xae4e;" d="M753 555h137v-62h-137v-241h-70v526h70v-223zM295 313q44 37 75 65t51.5 51t32 44t17 43t7 48t1.5 60v38h-142v61h209v-109q0 -49 -4.5 -87.5t-25 -76.5t-62.5 -81.5t-117 -102.5zM40 364q66 50 103.5 83t56 60.5t23 55.5t4.5 68v31h-157v61h223v-101q0 -41 -6 -73.5 t-28 -66.5t-64.5 -73.5t-115.5 -93.5zM133 198h297v-341h-69v279h-228v62zM480 198h273v-341h-69v279h-204v62z" />
<glyph unicode="&#xae50;" d="M753 511h137v-62h-137v-325h-70v654h70v-267zM275 -63h506v-62h-577v298h71v-236zM295 279q44 37 75 65t51.5 51t32 44t17 43t7 48t1.5 60v67h-142v61h209v-138q0 -49 -4.5 -87.5t-25 -76.5t-62.5 -81.5t-117 -102.5zM40 330q66 50 103.5 83t56 60.5t23 55.5t4.5 68v60 h-157v61h223v-130q0 -41 -6 -73.5t-28 -66.5t-64.5 -73.5t-115.5 -93.5z" />
<glyph unicode="&#xae54;" d="M753 266v-232h-484v-113h508v-60h-577v232h484v112h-489v61h558zM753 585h137v-62h-137v-203h-70v458h70v-193zM296 366q44 34 75 60.5t51.5 48t32 41.5t17 41.5t6.5 47.5t1 60v11h-142v61h209v-82q0 -49 -4 -87t-24 -74.5t-62.5 -78t-119.5 -98.5zM41 415 q67 48 104.5 78.5t55.5 56t22 51.5t4 65v10h-157v61h223v-80q0 -41 -5.5 -72t-27.5 -62.5t-64.5 -69t-117.5 -89.5z" />
<glyph unicode="&#xae56;" d="M481 -139v399h272v-399h-272zM414 260v-228h-207v-111h52q19 0 42 1t47 2.5t46 3.5t39 4l5 -59q-38 -5 -89.5 -8.5t-102.5 -3.5h-105v229h207v110h-212v60h278zM753 585h137v-62h-137v-209h-70v464h70v-193zM296 366q44 34 75 60.5t51.5 48t32 41.5t17 41.5t6.5 47.5 t1 60v11h-142v61h209v-82q0 -49 -4 -87t-24 -74.5t-62.5 -78t-119.5 -98.5zM547 201v-281h140v281h-140zM41 415q67 48 104.5 78.5t55.5 56t22 51.5t4 65v10h-157v61h223v-80q0 -41 -5.5 -72t-27.5 -62.5t-64.5 -69t-117.5 -89.5z" />
<glyph unicode="&#xae5c;" d="M202 208h551v-342h-551v342zM270 -71h415v216h-415v-216zM753 555h137v-62h-137v-231h-70v516h70v-223zM295 313q44 37 75 65t51.5 51t32 44t17 43t7 48t1.5 60v38h-142v61h209v-109q0 -49 -4.5 -87.5t-25 -76.5t-62.5 -81.5t-117 -102.5zM40 364q66 50 103.5 83t56 60.5 t23 55.5t4.5 68v31h-157v61h223v-101q0 -41 -6 -73.5t-28 -66.5t-64.5 -73.5t-115.5 -93.5z" />
<glyph unicode="&#xae5d;" d="M753 258v-393h-550v393h69v-129h412v129h69zM684 -72v139h-412v-139h412zM753 571h137v-62h-137v-197h-70v466h70v-207zM296 337q44 34 75 60.5t51.5 48t32 41.5t17 41.5t6.5 47.5t1 60v26h-142v61h209v-97q0 -49 -4 -87t-24 -74.5t-62.5 -78t-119.5 -98.5zM41 386 q67 48 104.5 78.5t55.5 56t22 51.5t4 65v25h-157v61h223v-95q0 -41 -5.5 -72t-27.5 -62.5t-64.5 -69t-117.5 -89.5z" />
<glyph unicode="&#xae5f;" d="M441 235h70v-79q0 -31 5.5 -53t18 -39.5t32.5 -31.5t49 -29q39 -20 91 -43t97 -41l-29 -57q-49 20 -98 43.5t-83 40.5q-100 50 -118 87q-18 -37 -118 -87q-34 -17 -83 -40.5t-98 -43.5l-30 57q22 9 47.5 19.5t50 21.5t48 22t43.5 21q27 14 47 28t33 31.5t19 40t6 53.5v79 zM753 546h137v-62h-137v-288h-70v582h70v-232zM295 307q44 37 75 65t51.5 51t32 44t17 43t7 48t1.5 60v44h-142v61h209v-115q0 -49 -4.5 -87.5t-25 -76.5t-62.5 -81.5t-117 -102.5zM40 358q66 50 103.5 83t56 60.5t23 55.5t4.5 68v37h-157v61h223v-107q0 -41 -6 -73.5 t-28 -66.5t-64.5 -73.5t-115.5 -93.5z" />
<glyph unicode="&#xae60;" d="M479 -138q-32 28 -57.5 50.5t-44.5 40.5q-29 29 -44 46t-17 23q-6 -10 -21 -27t-50 -47q-19 -17 -45 -38t-61 -48l-39 50q64 48 102 81q28 24 44 42t24 35t10 35t2 42v74h69v-77q0 -23 1.5 -39.5t7.5 -31.5t19.5 -31.5t37.5 -40.5q12 -12 27.5 -26t34.5 -29 q19 15 34.5 29t27.5 26q24 24 37.5 40.5t19.5 31.5t7.5 31.5t1.5 39.5v77h69v-74q0 -24 2 -42t10 -35t24 -35t44 -42q37 -33 102 -81l-39 -50q-35 27 -61 48t-45 38q-35 30 -50 47t-21 27q-2 -6 -17 -23t-44 -46q-19 -18 -44.5 -40.5t-57.5 -50.5zM753 568h137v-62h-137 v-230h-70v502h70v-210zM295 315q44 37 75 65t51.5 51t32 44t17 43t7 48t1.5 60v37h-142v61h209v-108q0 -49 -4.5 -87.5t-25 -76.5t-62.5 -81.5t-117 -102.5zM40 366q66 50 103.5 83t56 60.5t23 55.5t4.5 68v30h-157v61h223v-100q0 -41 -6 -73.5t-28 -66.5t-64.5 -73.5 t-115.5 -93.5z" />
<glyph unicode="&#xae61;" d="M485 214q56 0 106 -11.5t87 -33t58.5 -53t21.5 -70.5v-38q0 -39 -21.5 -70.5t-58.5 -53t-87 -33t-106 -11.5t-106 11.5t-87 33t-58.5 53t-21.5 70.5v38q0 40 21.5 71.5t58.5 53t87 32.5t106 11zM485 -100q40 0 77 7.5t65.5 21.5t45.5 34.5t17 47.5v32q0 27 -17 47.5 t-45.5 34.5t-65.5 21.5t-77 7.5t-77 -7.5t-65.5 -21.5t-45.5 -34.5t-17 -47.5v-32q0 -27 17 -47.5t45.5 -34.5t65.5 -21.5t77 -7.5zM753 557h137v-62h-137v-261h-70v544h70v-221zM295 300q44 37 75 65t51.5 51t32 44t17 43t7 48t1.5 60v48h-142v61h209v-119 q0 -49 -4.5 -87.5t-25 -76.5t-62.5 -81.5t-117 -102.5zM40 351q66 50 103.5 83t56 60.5t23 55.5t4.5 68v41h-157v61h223v-111q0 -41 -6 -73.5t-28 -66.5t-64.5 -73.5t-115.5 -93.5z" />
<glyph unicode="&#xae65;" d="M200 247h555v-61h-486v-101h477v-60h-477v-103h503v-61h-572v386zM753 583h137v-62h-137v-215h-70v472h70v-195zM296 366q44 34 75 60.5t51.5 48t32 41.5t17 41.5t6.5 47.5t1 60v11h-142v61h209v-82q0 -49 -4 -87t-24 -74.5t-62.5 -78t-119.5 -98.5zM41 415 q67 48 104.5 78.5t55.5 56t22 51.5t4 65v10h-157v61h223v-80q0 -41 -5.5 -72t-27.5 -62.5t-64.5 -69t-117.5 -89.5z" />
<glyph unicode="&#xae68;" d="M652 437h112v341h69v-914h-69v510h-112v-465h-69v850h69v-322zM238 90q61 75 96 124.5t53 88.5t23 75.5t5 84.5v161h-114v63h182v-227q0 -58 -6 -100t-26 -84.5t-58 -95.5t-103 -132zM15 165q64 71 100 118t53.5 85.5t21.5 74.5t4 84v97h-134v63h202v-163 q0 -58 -5.5 -99.5t-26 -83t-59.5 -92.5t-106 -127z" />
<glyph unicode="&#xae69;" d="M629 557h113v221h68v-534h-68v250h-113v-248h-68v520h68v-209zM210 190h600v-333h-70v271h-530v62zM247 314q58 55 90 89.5t47 63.5t18 60.5t3 79.5v51h-106v61h173v-125q0 -48 -3.5 -82t-21 -67.5t-54.5 -74.5t-103 -102zM30 351q60 52 93.5 86t49 61.5t19 55.5t3.5 69 v35h-126v61h191v-108q0 -41 -4.5 -72.5t-23.5 -64.5t-57 -72.5t-104 -96.5z" />
<glyph unicode="&#xae6c;" d="M629 533h113v245h68v-649h-68v341h-113v-319h-68v615h68v-233zM295 -63h535v-62h-606v298h71v-236zM247 288q58 55 90 89.5t47 63.5t18 60.5t3 79.5v72h-106v61h173v-146q0 -48 -3.5 -82t-21 -67.5t-54.5 -74.5t-103 -102zM30 325q60 52 93.5 86t49 61.5t19 55.5t3.5 69 v56h-126v61h191v-129q0 -41 -4.5 -72.5t-23.5 -64.5t-57 -72.5t-104 -96.5z" />
<glyph unicode="&#xae70;" d="M810 267v-232h-503v-114h527v-60h-596v233h503v112h-508v61h577zM629 594h113v184h68v-457h-68v210h-113v-208h-68v443h68v-172zM247 364q58 55 90 89.5t47 63.5t18 60.5t3 79.5v14h-106v61h173v-88q0 -48 -3.5 -82t-21 -67.5t-54.5 -74.5t-103 -102zM30 401 q60 52 93.5 86t49 61.5t19 55t3.5 67.5h-126v61h191v-71q0 -41 -4.5 -72.5t-23.5 -64.5t-57 -72.5t-104 -96.5z" />
<glyph unicode="&#xae78;" d="M238 209h572v-343h-572v343zM306 -71h436v217h-436v-217zM629 565h113v213h68v-515h-68v239h-113v-237h-68v501h68v-201zM247 317q58 55 90 89.5t47 63.5t18 60.5t3 79.5v48h-106v61h173v-122q0 -48 -3.5 -82t-21 -67.5t-54.5 -74.5t-103 -102zM30 354q60 52 93.5 86 t49 61.5t19 55.5t3.5 69v32h-126v61h191v-105q0 -41 -4.5 -72.5t-23.5 -64.5t-57 -72.5t-104 -96.5z" />
<glyph unicode="&#xae79;" d="M810 256v-391h-573v391h69v-128h435v128h69zM629 582h113v196h68v-468h-68v209h-113v-207h-68v454h68v-184zM741 -72v138h-435v-138h435zM247 353q58 55 90 89.5t47 63.5t18 60.5t3 79.5v12h-106v61h173v-86q0 -48 -3.5 -82t-21 -67.5t-54.5 -74.5t-103 -102zM30 390 q60 52 93.5 86t49 61.5t19 54.5t3.5 66h-126v61h191v-69q0 -41 -4.5 -72.5t-23.5 -64.5t-57 -72.5t-104 -96.5z" />
<glyph unicode="&#xae7b;" d="M629 560h113v218h68v-584h-68v303h-113v-213h-68v482h68v-206zM467 231h70v-75q0 -31 5.5 -53t18 -39.5t32.5 -31.5t49 -29q39 -20 91 -43t97 -41l-29 -57q-49 20 -98 43.5t-83 40.5q-100 50 -118 87q-18 -37 -118 -87q-34 -17 -83 -40.5t-98 -43.5l-30 57 q22 9 47.5 19.5t50 21.5t48 22t43.5 21q28 14 47.5 28t32.5 31.5t19 40t6 53.5v75zM247 300q58 55 90 89.5t47 63.5t18 60.5t3 79.5v60h-106v61h173v-134q0 -48 -3.5 -82t-21 -67.5t-54.5 -74.5t-103 -102zM30 337q60 52 93.5 86t49 61.5t19 55.5t3.5 69v44h-126v61h191 v-117q0 -41 -4.5 -72.5t-23.5 -64.5t-57 -72.5t-104 -96.5z" />
<glyph unicode="&#xae7c;" d="M500 -138q-32 28 -57.5 50.5t-44.5 40.5q-29 29 -44 46t-17 23q-6 -10 -21 -27t-50 -47q-19 -17 -45 -38t-61 -48l-39 50q64 48 102 81q28 24 44 42t24 35t10 35t2 42v77h69v-80q0 -23 1.5 -39.5t7.5 -31.5t19.5 -31.5t37.5 -40.5q12 -12 27.5 -26t34.5 -29 q19 15 34.5 29t27.5 26q24 24 37.5 40.5t19.5 31.5t7.5 31.5t1.5 39.5v80h69v-77q0 -24 2 -42t10 -35t24 -35t44 -42q37 -33 102 -81l-39 -50q-35 27 -61 48t-45 38q-35 30 -50 47t-21 27q-2 -6 -17 -23t-44 -46q-19 -18 -44.5 -40.5t-57.5 -50.5zM629 568h113v210h68v-511 h-68v238h-113v-224h-68v485h68v-198zM247 318q58 55 90 89.5t47 63.5t18 60.5t3 79.5v47h-106v61h173v-121q0 -48 -3.5 -82t-21 -67.5t-54.5 -74.5t-103 -102zM30 355q60 52 93.5 86t49 61.5t19 55.5t3.5 69v31h-126v61h191v-104q0 -41 -4.5 -72.5t-23.5 -64.5t-57 -72.5 t-104 -96.5z" />
<glyph unicode="&#xae7d;" d="M531 210q56 0 107.5 -11t90.5 -32.5t62.5 -52.5t23.5 -71v-36q0 -40 -23.5 -71t-62.5 -52.5t-90.5 -32.5t-107.5 -11t-107.5 11t-90.5 32.5t-62.5 52.5t-23.5 71v37q0 40 23.5 71t62.5 52t90.5 32t107.5 11zM531 -100q40 0 79 7t69.5 21t49 34.5t18.5 47.5v30 q0 27 -18.5 47.5t-49 34.5t-69.5 21t-79 7t-79 -7t-69.5 -20.5t-49 -34t-18.5 -47.5v-31q0 -27 18.5 -47.5t49 -34.5t69.5 -21t79 -7zM629 563h113v215h68v-550h-68v272h-113v-233h-68v499h68v-203zM247 303q58 55 90 89.5t47 63.5t18 60.5t3 79.5v59h-106v61h173v-133 q0 -48 -3.5 -82t-21 -67.5t-54.5 -74.5t-103 -102zM30 340q60 52 93.5 86t49 61.5t19 55.5t3.5 69v43h-126v61h191v-116q0 -41 -4.5 -72.5t-23.5 -64.5t-57 -72.5t-104 -96.5z" />
<glyph unicode="&#xae84;" d="M752 565h141v-63h-141v-194h141v-63h-141v-381h-70v914h70v-213zM281 84q67 76 106 128.5t58 94t24 77.5t5 81v162h-139v64h207v-229q0 -54 -6 -96.5t-27.5 -88t-63.5 -101t-113 -136.5zM33 168q47 48 79.5 84.5t53.5 66t32.5 53.5t17 47t6.5 47.5t1 54.5v106h-158v64 h226v-173q0 -36 -2 -65t-9 -55.5t-20 -53.5t-36.5 -59t-58 -71t-83.5 -91z" />
<glyph unicode="&#xae85;" d="M168 188h575v-331h-70v269h-505v62zM743 643h135v-62h-135v-124h135v-62h-135v-153h-69v536h69v-135zM287 305q44 37 75 65t51.5 51t32 44t17 43t7 48t1.5 60v46h-142v61h209v-117q0 -49 -4.5 -87.5t-25 -76.5t-62.5 -81.5t-117 -102.5zM32 357q66 50 103.5 83t56 60.5 t23 55.5t4.5 68v38h-157v61h223v-108q0 -41 -6 -73.5t-28 -66.5t-64.5 -73.5t-115.5 -93.5z" />
<glyph unicode="&#xae8c;" d="M743 266v-232h-484v-113h508v-60h-577v232h484v112h-489v61h558zM743 662h135v-62h-135v-99h135v-62h-135v-119h-69v458h69v-116zM286 366q44 34 75 60.5t51.5 48t32 41.5t17 41.5t6.5 47.5t1 60v11h-142v61h209v-82q0 -49 -4 -87t-24 -74.5t-62.5 -78t-119.5 -98.5z M31 415q67 48 104.5 78.5t55.5 56t22 51.5t4 65v10h-157v61h223v-80q0 -41 -5.5 -72t-27.5 -62.5t-64.5 -69t-117.5 -89.5z" />
<glyph unicode="&#xaebc;" d="M295 84q67 76 106 128.5t58 94t24 77.5t5 81v162h-141v64h209v-229v-15h173v331h70v-914h-70v519h-177q-4 -36 -15.5 -70t-34.5 -73t-61 -87t-95 -113zM45 168q47 48 79.5 84.5t53.5 66t32.5 53.5t17 47t6.5 47.5t1 54.5v106h-160v64h228v-173q0 -36 -2 -65t-9 -55.5 t-20 -53.5t-36.5 -59t-58 -71t-83.5 -91z" />
<glyph unicode="&#xaebd;" d="M308 306q44 37 75 65t51.5 51t32 44t17 43t7 48t1.5 60v45h-143v61h210v-116v-34.5t-2 -31.5h166v237h70v-536h-70v237h-178q-8 -24 -22 -47.5t-37 -50t-56.5 -56.5t-79.5 -66zM203 188h590v-331h-70v269h-520v62zM52 357q66 50 103.5 83t56 60.5t23 55.5t4.5 68v38h-158 v61h224v-108q0 -41 -6 -73.5t-28 -66.5t-64.5 -73.5t-115.5 -93.5z" />
<glyph unicode="&#xaebe;" d="M308 313q44 37 75 65t51.5 51t32 44t17 43t7 48t1.5 60v38h-143v61h210v-109q0 -40 -3 -73h167v237h70v-527h-70v228h-181q-9 -23 -23.5 -46t-37 -48.5t-55 -54.5t-76.5 -64zM52 364q66 50 103.5 83t56 60.5t23 55.5t4.5 68v31h-158v61h224v-101q0 -41 -6 -73.5 t-28 -66.5t-64.5 -73.5t-115.5 -93.5zM162 197h303v-340h-68v278h-235v62zM515 197h278v-340h-68v278h-210v62z" />
<glyph unicode="&#xaec0;" d="M308 279q44 37 75 65t51.5 51t32 44t17 43t7 48t1.5 60v67h-143v61h210v-138q0 -17 -0.5 -33.5t-1.5 -30.5h166v262h70v-654h-70v330h-178q-8 -24 -21.5 -48t-37 -50.5t-57 -56.5t-79.5 -67zM302 -63h514v-62h-585v298h71v-236zM52 329q66 50 103.5 83t56 60.5t23 55.5 t4.5 68v61h-158v61h224v-131q0 -41 -6 -73.5t-28 -66.5t-64.5 -73.5t-115.5 -93.5z" />
<glyph unicode="&#xaec4;" d="M793 266v-232h-492v-113h516v-60h-585v232h492v112h-497v61h566zM309 366q44 34 75 60.5t51.5 48t32 41.5t17 41.5t6.5 47.5t1 60v11h-143v61h210v-82q0 -43 -3 -79h167v202h70v-458h-70v194h-182q-9 -21 -23.5 -42.5t-37.5 -45t-55 -50.5t-76 -59zM53 415 q67 48 104.5 78.5t55.5 56t22 51.5t4 65v10h-158v61h224v-80q0 -41 -5.5 -72t-27.5 -62.5t-64.5 -69t-117.5 -89.5z" />
<glyph unicode="&#xaecc;" d="M232 208h561v-342h-561v342zM300 -71h425v216h-425v-216zM308 313q44 37 75 65t51.5 51t32 44t17 43t7 48t1.5 60v38h-143v61h210v-109v-34.5t-2 -31.5h166v230h70v-516h-70v224h-178q-8 -24 -22 -47.5t-37 -50t-56.5 -56.5t-79.5 -66zM52 364q66 50 103.5 83t56 60.5 t23 55.5t4.5 68v31h-158v61h224v-101q0 -41 -6 -73.5t-28 -66.5t-64.5 -73.5t-115.5 -93.5z" />
<glyph unicode="&#xaecd;" d="M793 258v-393h-560v393h69v-129h422v129h69zM309 337q44 34 75 60.5t51.5 48t32 41.5t17 41.5t6.5 47.5t1 60v26h-143v61h210v-97q0 -40 -3 -73h167v225h70v-466h-70v179h-180q-8 -22 -22.5 -44t-37.5 -46t-56 -52t-78 -61zM724 -72v139h-422v-139h422zM53 386 q67 48 104.5 78.5t55.5 56t22 51.5t4 65v25h-158v61h224v-95q0 -41 -5.5 -72t-27.5 -62.5t-64.5 -69t-117.5 -89.5z" />
<glyph unicode="&#xaecf;" d="M308 307q44 37 75 65t51.5 51t32 44t17 43t7 48t1.5 60v44h-143v61h210v-115q0 -41 -3 -75h167v245h70v-582h-70v275h-182q-8 -23 -22.5 -45.5t-37.5 -48t-55 -54.5t-76 -63zM469 235h70v-79q0 -31 5.5 -53t18 -39.5t32.5 -31.5t49 -29q39 -20 91 -43t97 -41l-29 -57 q-49 20 -98 43.5t-83 40.5q-100 50 -118 87q-18 -37 -118 -87q-34 -17 -83 -40.5t-98 -43.5l-30 57q22 9 47.5 19.5t50 21.5t48 22t43.5 21q28 14 47.5 28t32.5 31.5t19 40t6 53.5v79zM52 358q66 50 103.5 83t56 60.5t23 55.5t4.5 68v37h-158v61h224v-107q0 -41 -6 -73.5 t-28 -66.5t-64.5 -73.5t-115.5 -93.5z" />
<glyph unicode="&#xaed0;" d="M793 278h-70v213h-177q-8 -24 -21.5 -48t-37 -50.5t-57 -57t-80.5 -67.5l-42 47q44 37 75 65t51.5 51t32 44t17 43t7 48t1.5 60v37h-143v61h210v-108q0 -17 -0.5 -33t-1.5 -30h166v225h70v-500zM498 -138q-84 71 -121.5 110.5t-41.5 49.5q-6 -10 -21 -27t-50 -47 q-19 -17 -45 -38t-61 -48l-39 50q64 48 102 81q28 24 44 42t24 35t10 35t2 42v73h69v-76q0 -23 1.5 -39.5t7.5 -31.5t19.5 -31.5t37.5 -40.5q12 -12 27.5 -26t34.5 -29q19 15 34.5 29t27.5 26q24 24 37.5 40.5t19.5 31.5t7.5 31.5t1.5 39.5v76h69v-73q0 -24 2 -42t10 -35 t24 -35t44 -42q37 -33 102 -81l-39 -50q-35 27 -61 48t-45 38q-35 30 -50 47t-21 27q-4 -10 -41.5 -49.5t-121.5 -110.5zM52 366q66 50 103.5 83t56 60.5t23 55.5t4.5 68v30h-158v61h224v-100q0 -41 -6 -73.5t-28 -66.5t-64.5 -73.5t-115.5 -93.5z" />
<glyph unicode="&#xaed1;" d="M520 214q56 0 106.5 -11.5t88.5 -33t60.5 -53t22.5 -70.5v-38q0 -39 -22.5 -70.5t-60.5 -53t-88.5 -33t-106.5 -11.5t-106.5 11.5t-88.5 33t-60.5 53t-22.5 70.5v38q0 40 22.5 71.5t60.5 53t88.5 32.5t106.5 11zM793 234h-70v247h-176q-7 -25 -20.5 -49.5t-37 -51.5 t-57.5 -58t-82 -69l-42 47q44 37 75 65t51.5 51t32 44t17 43t7 48t1.5 60v48h-143v61h210v-119v-30t-2 -28h166v235h70v-544zM520 -100q40 0 78 7.5t67 22t47 35t18 47.5v30q0 27 -18 47.5t-47 35t-67 22t-78 7.5t-78 -7.5t-67 -22t-47 -35t-18 -47.5v-30q0 -27 18 -47.5 t47 -35t67 -22t78 -7.5zM52 351q66 50 103.5 83t56 60.5t23 55.5t4.5 68v41h-158v61h224v-111q0 -41 -6 -73.5t-28 -66.5t-64.5 -73.5t-115.5 -93.5z" />
<glyph unicode="&#xaed8;" d="M228 90q61 75 96 124.5t53 88.5t23 75.5t5 84.5v161h-104v63h172v-227v-27h122v326h68v-850h-68v462h-127q-5 -35 -15.5 -67t-32 -68t-55.5 -81t-85 -107zM833 -136h-69v914h69v-914zM18 168q63 69 98 115.5t52.5 84.5t21.5 74.5t4 84.5v97h-134v63h202v-163 q0 -39 -2 -69.5t-9 -58.5t-20 -55t-34.5 -58.5t-53 -69.5t-75.5 -88z" />
<glyph unicode="&#xaed9;" d="M247 314q58 55 90 89.5t47 63.5t18 60.5t3 79.5v51h-106v61h173v-125q0 -14 -0.5 -25.5t-0.5 -22.5h115v220h68v-520h-68v238h-123q-6 -22 -18 -43.5t-32 -46.5t-50 -55.5t-73 -70.5zM210 190h600v-333h-70v271h-530v62zM30 351q60 52 93.5 86t49 61.5t19 55.5t3.5 69v35 h-126v61h191v-108q0 -41 -4.5 -72.5t-23.5 -64.5t-57 -72.5t-104 -96.5zM810 244h-68v534h68v-534z" />
<glyph unicode="&#xaedc;" d="M247 288q58 55 90 89.5t47 63.5t18 60.5t3 79.5v72h-106v61h173v-146v-35h114v233h68v-615h-68v320h-120q-5 -24 -16 -47t-31 -49t-51.5 -58t-77.5 -75zM295 -63h535v-62h-606v298h71v-236zM810 129h-68v649h68v-649zM30 325q60 52 93.5 86t49 61.5t19 55.5t3.5 69v56 h-126v61h191v-129q0 -41 -4.5 -72.5t-23.5 -64.5t-57 -72.5t-104 -96.5z" />
<glyph unicode="&#xaee8;" d="M238 209h572v-343h-572v343zM306 -71h436v217h-436v-217zM247 317q58 55 90 89.5t47 63.5t18 60.5t3 79.5v48h-106v61h173v-122v-23.5t-1 -21.5h115v214h68v-501h-68v224h-123q-6 -22 -17 -44t-31.5 -47t-51 -56t-73.5 -71zM30 354q60 52 93.5 86t49 61.5t19 55.5t3.5 69 v32h-126v61h191v-105q0 -41 -4.5 -72.5t-23.5 -64.5t-57 -72.5t-104 -96.5zM810 263h-68v515h68v-515z" />
<glyph unicode="&#xaeeb;" d="M247 300q58 55 90 89.5t47 63.5t18 60.5t3 79.5v60h-106v61h173v-134v-20t-1 -17h115v223h68v-482h-68v197h-121q-5 -24 -15.5 -46.5t-31 -48.5t-51.5 -58t-77 -74zM467 231h70v-75q0 -31 5.5 -53t18 -39.5t32.5 -31.5t49 -29q39 -20 91 -43t97 -41l-29 -57 q-49 20 -98 43.5t-83 40.5q-100 50 -118 87q-18 -37 -118 -87q-34 -17 -83 -40.5t-98 -43.5l-30 57q22 9 47.5 19.5t50 21.5t48 22t43.5 21q28 14 47.5 28t32.5 31.5t19 40t6 53.5v75zM810 194h-68v584h68v-584zM30 337q60 52 93.5 86t49 61.5t19 55.5t3.5 69v44h-126v61 h191v-117q0 -41 -4.5 -72.5t-23.5 -64.5t-57 -72.5t-104 -96.5z" />
<glyph unicode="&#xaeed;" d="M531 210q56 0 107.5 -11t90.5 -32.5t62.5 -52.5t23.5 -71v-36q0 -40 -23.5 -71t-62.5 -52.5t-90.5 -32.5t-107.5 -11t-107.5 11t-90.5 32.5t-62.5 52.5t-23.5 71v37q0 40 23.5 71t62.5 52t90.5 32t107.5 11zM531 -100q40 0 79 7t69.5 21t49 34.5t18.5 47.5v30 q0 27 -18.5 47.5t-49 34.5t-69.5 21t-79 7t-79 -7t-69.5 -20.5t-49 -34t-18.5 -47.5v-31q0 -27 18.5 -47.5t49 -34.5t69.5 -21t79 -7zM247 303q58 55 90 89.5t47 63.5t18 60.5t3 79.5v59h-106v61h173v-133v-20t-1 -17h115v220h68v-499h-68v217h-121q-5 -24 -15.5 -46.5 t-31 -48.5t-51.5 -58t-77 -74zM810 228h-68v550h68v-550zM30 340q60 52 93.5 86t49 61.5t19 55.5t3.5 69v43h-126v61h191v-116q0 -41 -4.5 -72.5t-23.5 -64.5t-57 -72.5t-104 -96.5z" />
<glyph unicode="&#xaef4;" d="M731 313v180h-179v-31q0 -36 -2 -66.5t-9.5 -59t-21 -58t-36.5 -64t-57 -77t-82 -96.5l-51 44q68 77 106.5 129t57 93t23 77t4.5 81v162h-139v64h207v-134h179v221h69v-914h-69v385h-185v64h185zM45 169q47 48 79.5 84.5t53.5 66t32 53.5t16 47t6 47t1 54v106h-158v64 h226v-173q0 -54 -4.5 -93.5t-25 -80t-62 -91.5t-115.5 -129z" />
<glyph unicode="&#xaef8;" d="M724 615v163h69v-654h-69v223h-135v60h135v148h-130v60h130zM302 -63h514v-62h-585v298h71v-236zM303 279q44 37 75 65t51.5 51t32 44t17 43t7 48t1.5 60v67h-141v61h208v-138q0 -49 -4.5 -87.5t-25 -76.5t-62.5 -81.5t-117 -102.5zM49 329q66 50 103.5 83t56 60.5 t23 55.5t4.5 68v61h-156v61h222v-131q0 -41 -6 -73.5t-28 -66.5t-64.5 -73.5t-115.5 -93.5z" />
<glyph unicode="&#xaefc;" d="M793 266v-232h-492v-113h516v-60h-585v232h492v112h-497v61h566zM724 656v122h69v-458h-69v108h-135v60h135v108h-130v60h130zM304 366q44 34 75 60.5t51.5 48t32 41.5t17 41.5t6.5 47.5t1 60v11h-141v61h208v-82q0 -49 -4 -87t-24 -74.5t-62.5 -78t-119.5 -98.5zM50 415 q67 48 104.5 78.5t55.5 56t22 51.5t4 65v10h-156v61h222v-80q0 -41 -5.5 -72t-27.5 -62.5t-64.5 -69t-117.5 -89.5z" />
<glyph unicode="&#xaf07;" d="M724 629v149h69v-582h-69v171h-135v60h135v142h-130v60h130zM469 235h70v-79q0 -31 5.5 -53t18 -39.5t32.5 -31.5t49 -29q39 -20 91 -43t97 -41l-29 -57q-49 20 -98 43.5t-83 40.5q-100 50 -118 87q-18 -37 -118 -87q-34 -17 -83 -40.5t-98 -43.5l-30 57q22 9 47.5 19.5 t50 21.5t48 22t43.5 21q28 14 47.5 28t32.5 31.5t19 40t6 53.5v79zM303 307q44 37 75 65t51.5 51t32 44t17 43t7 48t1.5 60v44h-141v61h208v-115q0 -49 -4.5 -87.5t-25 -76.5t-62.5 -81.5t-117 -102.5zM49 358q66 50 103.5 83t56 60.5t23 55.5t4.5 68v37h-156v61h222v-107 q0 -41 -6 -73.5t-28 -66.5t-64.5 -73.5t-115.5 -93.5z" />
<glyph unicode="&#xaf08;" d="M498 -138q-84 71 -121.5 110.5t-41.5 49.5q-6 -10 -21 -27t-50 -47q-19 -17 -45 -38t-61 -48l-39 50q64 48 102 81q28 24 44 42t24 35t10 35t2 42v71h69v-74q0 -23 1.5 -39.5t7.5 -31.5t19.5 -31.5t37.5 -40.5q12 -12 27.5 -26t34.5 -29q19 15 34.5 29t27.5 26 q24 24 37.5 40.5t19.5 31.5t7.5 31.5t1.5 39.5v74h69v-71q0 -24 2 -42t10 -35t24 -35t44 -42q37 -33 102 -81l-39 -50q-35 27 -61 48t-45 38q-35 30 -50 47t-21 27q-4 -10 -41.5 -49.5t-121.5 -110.5zM724 637v141h69v-502h-69v121h-135v60h135v120h-130v60h130zM303 315 q44 37 75 65t51.5 51t32 44t17 43t7 48t1.5 60v37h-141v61h208v-108q0 -49 -4.5 -87.5t-25 -76.5t-62.5 -81.5t-117 -102.5zM49 366q66 50 103.5 83t56 60.5t23 55.5t4.5 68v30h-156v61h222v-100q0 -41 -6 -73.5t-28 -66.5t-64.5 -73.5t-115.5 -93.5z" />
<glyph unicode="&#xaf0d;" d="M232 247h563v-61h-493v-101h484v-60h-484v-103h510v-61h-580v386zM724 656v122h69v-477h-69v127h-135v60h135v108h-130v60h130zM304 366q44 34 75 60.5t51.5 48t32 41.5t17 41.5t6.5 47.5t1 60v11h-141v61h208v-82q0 -49 -4 -87t-24 -74.5t-62.5 -78t-119.5 -98.5z M50 415q67 48 104.5 78.5t55.5 56t22 51.5t4 65v10h-156v61h222v-80q0 -41 -5.5 -72t-27.5 -62.5t-64.5 -69t-117.5 -89.5z" />
<glyph unicode="&#xaf10;" d="M664 -91h-68v337h-174q-22 -38 -56 -84t-88 -112l-52 42q40 50 68.5 88t48 68.5t31 55.5t17.5 49.5t8 51t2 58.5v161h-102v63h170v-143h127v215h68v-850zM833 -136h-69v914h69v-914zM18 170q62 69 97 115.5t52 84t21 73.5t4 84v97h-132v63h200v-163q0 -39 -2 -69.5 t-9 -58t-20 -54t-34 -58t-52.5 -69.5t-74.5 -88zM469 460q0 -48 -3.5 -83.5t-15.5 -69.5h146v176h-127v-23z" />
<glyph unicode="&#xaf2c;" d="M431 54v321h72v-321h372v-61h-840v61h396zM649 211q23 91 32.5 175.5t9.5 177.5v72h-244v61h314v-96q0 -110 -9 -211.5t-33 -190.5zM243 213q34 100 49.5 187.5t15.5 172.5v63h-213v61h283v-88q0 -108 -16.5 -213t-49.5 -197z" />
<glyph unicode="&#xaf2d;" d="M432 343v182h70v-182h373v-60h-840v60h397zM142 163h612v-306h-70v245h-542v61zM751 738v-68q0 -66 -7.5 -130t-24.5 -124l-71 14q16 51 24.5 106t8.5 110v30h-232v62h302zM384 738v-57q0 -63 -13 -130t-42 -133l-69 15q27 62 40.5 116t13.5 112v15h-205v62h275z" />
<glyph unicode="&#xaf30;" d="M432 304v196h70v-196h373v-60h-840v60h397zM231 -63h539v-62h-610v277h71v-215zM751 730v-96q0 -66 -8 -130.5t-25 -124.5l-71 14q16 48 25 106t9 112v57h-232v62h302zM384 730v-84q0 -63 -13.5 -131t-42.5 -134l-68 15q26 63 40 119.5t14 109.5v43h-205v62h275z" />
<glyph unicode="&#xaf32;" d="M469 -18q0 22 10 43t29.5 37t48 25.5t65.5 9.5t65.5 -10t48 -26t29.5 -36.5t10 -42.5v-24q0 -22 -10 -42.5t-29.5 -36.5t-48 -26t-65.5 -10t-65.5 10t-48 26t-29.5 36.5t-10 42.5v24zM432 371v173h70v-173h373v-60h-840v60h397zM218 -73h54q29 0 71.5 2t85.5 8l7 -58 q-39 -6 -88 -8.5t-97 -2.5h-102v351h69v-292zM751 743v-46q0 -63 -6 -128t-23 -131l-71 13q15 49 22.5 104.5t7.5 96.5v29h-232v62h302zM384 743v-43q0 -65 -11.5 -127t-39.5 -134l-68 14q23 55 36 107.5t13 96.5v24h-205v62h275zM654 192h148v-56h-366v56h151v79h67v-79z M714 -21q0 25 -24 44t-68 19t-68 -19t-24 -44v-18q0 -25 24 -44t68 -19t68 19t24 44v18z" />
<glyph unicode="&#xaf34;" d="M750 247v-222h-521v-106h548v-59h-617v223h521v105h-526v59h595zM432 400v153h70v-153h373v-60h-840v60h397zM751 748v-32q0 -63 -6 -128t-23 -131l-71 13q15 49 22.5 104.5t7.5 96.5v15h-232v62h302zM384 748v-29q0 -65 -11.5 -127t-39.5 -134l-68 14q23 55 36 107.5 t13 96.5v10h-205v62h275z" />
<glyph unicode="&#xaf3c;" d="M158 181h594v-315h-594v315zM226 -71h458v189h-458v-189zM432 352v172h70v-172h373v-60h-840v60h397zM751 738v-64q0 -66 -7.5 -130t-24.5 -124l-71 14q16 51 24.5 106t8.5 110v26h-232v62h302zM384 738v-53q0 -63 -13 -130t-42 -133l-69 15q27 62 40.5 116t13.5 112v11 h-205v62h275z" />
<glyph unicode="&#xaf3d;" d="M753 226v-361h-596v361h69v-118h458v118h69zM432 369v175h70v-175h373v-60h-840v60h397zM684 -72v118h-458v-118h458zM751 743v-46q0 -63 -6 -128t-23 -131l-71 13q15 49 22.5 104.5t7.5 96.5v29h-232v62h302zM384 743v-43q0 -65 -11.5 -127t-39.5 -134l-68 14 q23 55 36 107.5t13 96.5v24h-205v62h275z" />
<glyph unicode="&#xaf3f;" d="M432 338v181h70v-181h373v-60h-840v60h397zM456 30q-3 -7 -11.5 -15t-20.5 -15.5t-26 -15t-27 -14.5q-29 -15 -60.5 -30.5t-62.5 -29.5t-59.5 -26.5t-52.5 -22.5l-29 55q25 10 55 22.5t60 26t56.5 26.5t44.5 22q33 17 52 30.5t29 28.5t13 33t3 45v50h70v-50 q0 -27 3.5 -46t13.5 -33.5t28.5 -27.5t49.5 -29q48 -24 102.5 -49t115.5 -49l-29 -54q-48 20 -110 48.5t-125 60.5q-26 14 -51.5 29.5t-30.5 29.5h-1zM751 738v-72q0 -66 -7.5 -130t-24.5 -124l-71 14q16 51 24.5 106t8.5 110v34h-232v62h302zM384 738v-61q0 -63 -13 -130 t-42 -133l-69 15q27 62 40.5 116t13.5 112v19h-205v62h275z" />
<glyph unicode="&#xaf41;" d="M455 202q56 0 107.5 -10.5t90.5 -31.5t62.5 -51.5t23.5 -69.5v-36q0 -39 -23.5 -69.5t-62.5 -51.5t-90.5 -31.5t-107.5 -10.5t-107.5 10.5t-90.5 31.5t-62.5 51.5t-23.5 69.5v36q0 40 23.5 70.5t62.5 51t90.5 31t107.5 10.5zM455 -100q40 0 79 7.5t69.5 21t49 33.5 t18.5 45v28q0 25 -18.5 45t-49 33.5t-69.5 21t-79 7.5q-41 0 -79.5 -7.5t-69 -21t-49 -33.5t-18.5 -45v-28q0 -25 18.5 -45t49 -33.5t69 -21t79.5 -7.5zM432 348v176h70v-176h373v-60h-840v60h397zM751 738v-68q0 -66 -7.5 -130t-24.5 -124l-71 14q16 51 24.5 106t8.5 110 v30h-232v62h302zM384 738v-57q0 -63 -13 -130t-42 -133l-69 15q27 62 40.5 116t13.5 112v15h-205v62h275z" />
<glyph unicode="&#xaf42;" d="M455 4q-12 -20 -43.5 -37t-76.5 -37q-45 -18 -91.5 -36t-90.5 -33l-25 55q47 16 96 34t91 35q31 13 51.5 24.5t32.5 24t17 27t5 34.5v32h-286v61h640v-61h-286v-32q0 -20 5 -35t17 -27.5t32.5 -23.5t51.5 -24q42 -17 91 -35t96 -34l-25 -55q-44 15 -90 33t-91 36 q-48 20 -78 37t-42 37h-1zM432 361v163h70v-163h373v-60h-840v60h397zM751 738v-59q0 -66 -7.5 -130t-24.5 -124l-71 14q16 51 24.5 106t8.5 110v21h-232v62h302zM384 738v-48q0 -63 -13 -130t-42 -133l-69 15q27 62 40.5 116t13.5 112v6h-205v62h275z" />
<glyph unicode="&#xaf43;" d="M489 177h275v-60h-275v-16q0 -20 5 -35.5t17 -29t32.5 -26t51.5 -25.5q42 -17 91 -35t96 -33l-25 -55q-44 14 -90.5 32t-91.5 36q-48 20 -78 39t-42 40q-12 -21 -42 -40t-78 -39q-45 -18 -91.5 -36t-90.5 -32l-25 55q47 15 96 33t91 35q31 13 51.5 25.5t32.5 26t17 29 t5 35.5v16h-275v60h275v93h68v-93zM432 392v161h70v-161h373v-60h-840v60h397zM751 748v-35q0 -63 -6 -128t-23 -131l-71 13q15 49 22.5 104.5t7.5 96.5v18h-232v62h302zM384 748v-32q0 -65 -11.5 -127t-39.5 -134l-68 14q23 55 36 107.5t13 96.5v13h-205v62h275z" />
<glyph unicode="&#xaf48;" d="M764 430h145v-63h-145v-503h-71v914h71v-348zM630 99q-62 -6 -119.5 -10.5t-124.5 -7.5t-150.5 -4t-198.5 -1v62q81 0 146.5 0.5t122.5 1.5v272h71v-270q70 3 128.5 7t118.5 11zM566 690v-117q0 -33 -1.5 -70t-4.5 -74.5t-8 -74t-12 -68.5l-69 12q16 78 21 141t5 117v72 h-169v62h238zM271 690v-102q0 -71 -11 -148.5t-37 -153.5l-68 14q26 84 36.5 147t10.5 121v60h-150v62h219z" />
<glyph unicode="&#xaf49;" d="M155 163h604v-307h-69v245h-535v62zM627 288q-46 -6 -102 -10t-128 -7t-162 -4.5t-204 -1.5v62h153.5t125.5 2v193h70v-191q75 2 132.5 6t108.5 10zM759 526h137v-63h-137v-246h-70v561h70v-252zM461 427q13 45 20 96.5t7 99.5v50h-169v62h239v-89q0 -60 -6 -118 t-20 -113zM162 425q20 54 31 103t11 95v50h-142v62h212v-91q0 -56 -10 -115t-33 -119z" />
<glyph unicode="&#xaf50;" d="M759 240v-219h-512v-102h539v-59h-608v219h512v102h-517v59h586zM627 344q-46 -6 -102 -10t-128 -7t-162 -4.5t-204 -1.5v62h153.5t125.5 2v166h70v-164q75 2 132.5 6t108.5 10zM759 575h137v-62h-137v-219h-70v484h70v-203zM461 468q13 45 20 96.5t7 99.5v19h-169v62 h239v-58q0 -60 -6 -118t-20 -113zM162 466q20 54 31 103t11 95v19h-142v62h212v-60q0 -56 -10 -115t-33 -119z" />
<glyph unicode="&#xaf5c;" d="M478 -138q-32 28 -57.5 50.5t-44.5 40.5q-29 29 -44 46t-17 23q-6 -10 -21 -27t-50 -47q-19 -17 -45 -38t-61 -48l-39 50q64 48 102 81q28 24 44 42t24 35t10 35t2 42v60h69v-63q0 -23 1.5 -39.5t7.5 -31.5t19.5 -31.5t37.5 -40.5q12 -12 27.5 -26t34.5 -29 q19 15 34.5 29t27.5 26q24 24 37.5 40.5t19.5 31.5t7.5 31.5t1.5 39.5v63h69v-60q0 -24 2 -42t10 -35t24 -35t44 -42q37 -33 102 -81l-39 -50q-35 27 -61 48t-45 38q-35 30 -50 47t-21 27q-2 -6 -17 -23t-44 -46q-19 -18 -44.5 -40.5t-57.5 -50.5zM627 304q-46 -6 -102 -10 t-128 -7t-162 -4.5t-204 -1.5v62h153.5t125.5 2v182h70v-180q75 2 132.5 6t108.5 10zM759 558h137v-63h-137v-239h-70v522h70v-220zM461 432q13 45 20 96.5t7 99.5v45h-169v62h239v-84q0 -60 -6 -118t-20 -113zM162 430q20 54 31 103t11 95v45h-142v62h212v-86 q0 -56 -10 -115t-33 -119z" />
<glyph unicode="&#xaf5d;" d="M478 196q56 0 108 -10.5t91.5 -31.5t63 -51.5t23.5 -69.5v-30q0 -39 -23.5 -69.5t-63 -51.5t-91.5 -31.5t-108 -10.5t-108 10.5t-91.5 31.5t-63 51.5t-23.5 69.5v31q0 40 23.5 70t63 50.5t91.5 31t108 10.5zM478 -100q40 0 79 6.5t70 20t50 33.5t19 47v22q0 27 -19 47 t-50 33.5t-70 20t-79 6.5t-79 -6.5t-70 -20t-50 -33t-19 -46.5v-23q0 -27 19 -47t50 -33.5t70 -20t79 -6.5zM627 293q-46 -6 -102 -10t-128 -7t-162 -4.5t-204 -1.5v62h153.5t125.5 2v188h70v-186q75 2 132.5 6t108.5 10zM759 529h137v-63h-137v-239h-70v551h70v-249z M461 427q13 45 20 96.5t7 99.5v50h-169v62h239v-89q0 -60 -6 -118t-20 -113zM162 425q20 54 31 103t11 95v50h-142v62h212v-91q0 -56 -10 -115t-33 -119z" />
<glyph unicode="&#xaf64;" d="M661 418h113v360h70v-914h-70v494h-113v-469h-70v873h70v-344zM547 110q-49 -3 -101 -5.5t-112.5 -4t-131.5 -2.5t-158 -1v61h122t102 1v245h70v-243q51 2 99.5 4t105.5 5zM500 684v-104q0 -34 -1.5 -72t-4.5 -76.5t-8 -76t-13 -70.5l-69 10q14 60 20.5 129t6.5 133v65 h-141v62h210zM241 684v-101q0 -32 -2.5 -69t-8.5 -76t-15 -78.5t-21 -76.5l-68 13q23 72 34.5 142.5t11.5 124.5v59h-117v62h186z" />
<glyph unicode="&#xaf65;" d="M646 529h104v249h69v-557h-69v248h-104v-246h-69v543h69v-237zM206 167h613v-310h-70v248h-543v62zM329 327q61 3 109.5 6.5t88.5 7.5l5 -59q-85 -9 -207 -15t-284 -6v61q124 0 220 3v178h68v-176zM388 417q13 48 20.5 104t7.5 104v35h-133v61h200v-73q0 -61 -6 -124.5 t-20 -118.5zM125 415q20 55 32.5 112t12.5 103v30h-106v61h173v-77q0 -56 -10.5 -120t-33.5 -124z" />
<glyph unicode="&#xaf79;" d="M534 192q57 0 109.5 -10t92.5 -30t64 -50.5t24 -71.5v-28q0 -41 -24 -71.5t-64 -50.5t-92.5 -30t-109.5 -10t-109.5 10t-92.5 30t-64 50.5t-24 71.5v29q0 42 24 72t64 50t92.5 29.5t109.5 9.5zM534 -100q41 0 80.5 6.5t71 19.5t51 33t19.5 47v20q0 27 -19.5 47t-51 33 t-71 19.5t-80.5 6.5t-80.5 -6t-71 -19t-51 -33t-19.5 -47v-21q0 -27 19.5 -47t51 -33t71 -19.5t80.5 -6.5zM646 539h104v239h69v-564h-69v265h-104v-230h-69v517h69v-227zM329 332q61 3 109.5 6.5t88.5 7.5l5 -59q-85 -9 -207 -15t-284 -6v61q124 0 220 3v178h68v-176z M388 422q13 48 20.5 104t7.5 104v30h-133v61h200v-68q0 -61 -6 -124.5t-20 -118.5zM125 420q20 55 32.5 112t12.5 103v25h-106v61h173v-72q0 -56 -10.5 -120t-33.5 -124z" />
<glyph unicode="&#xaf80;" d="M805 -136h-71v914h71v-914zM406 142q74 3 136 7t122 11l6 -61q-62 -6 -122.5 -10.5t-131 -7.5t-157 -4t-201.5 -1v62h149t128 2v272h71v-270zM596 690v-118q0 -33 -1.5 -70t-4.5 -74.5t-8 -74t-12 -68.5l-69 12q16 78 21 141t5 117v72l-170 1v62h239zM300 690v-103 q0 -71 -11 -148.5t-37 -153.5l-68 14q26 84 36.5 147t10.5 121v61h-151v62h220z" />
<glyph unicode="&#xaf84;" d="M275 -63h540v-62h-611v271h71v-209zM658 264q-44 -5 -100 -9.5t-129 -7.5t-165.5 -5t-210.5 -2v62h153.5t126.5 2v192h70v-190q79 3 137.5 7.5t111.5 10.5zM792 100h-70v678h70v-678zM485 415q13 45 20 96.5t7 99.5v57h-170v62h240v-96q0 -60 -6 -118t-20 -113zM185 413 q20 54 31 103t11 95v57h-143v62h213v-98q0 -56 -10 -115t-33 -119z" />
<glyph unicode="&#xaf88;" d="M792 240v-219h-517v-102h544v-59h-613v219h517v102h-522v59h591zM658 346q-44 -5 -100 -9.5t-129 -7.5t-165.5 -5t-210.5 -2v61h154.5t126.5 2v166h70v-164q78 3 136.5 7.5t111.5 10.5zM792 294h-70v484h70v-484zM486 468q13 45 20 96.5t7 99.5v19h-170v62h240v-58 q0 -60 -6 -118t-20 -113zM186 466q20 54 31 103t11 95v19h-143v62h213v-60q0 -56 -10 -115t-33 -119z" />
<glyph unicode="&#xaf90;" d="M208 187h583v-321h-583v321zM276 -71h447v195h-447v-195zM658 305q-44 -5 -100 -9.5t-129 -7.5t-165.5 -5t-210.5 -2v62h153.5t126.5 2v179h70v-177q79 3 137.5 7.5t111.5 10.5zM791 241h-70v537h70v-537zM485 434q13 45 20 96.5t7 99.5v43h-170v62h240v-82 q0 -60 -6 -118t-20 -113zM185 432q20 54 31 103t11 95v43h-143v62h213v-84q0 -56 -10 -115t-33 -119z" />
<glyph unicode="&#xaf91;" d="M792 218v-353h-586v353h69v-113h448v113h69zM723 -72v115h-448v-115h448zM658 317q-44 -5 -100 -9.5t-129 -7.5t-165.5 -5t-210.5 -2v61h154.5t126.5 2v166h70v-164q78 3 136.5 7.5t111.5 10.5zM792 272h-70v506h70v-506zM486 447q13 45 20 96.5t7 99.5v30h-170v62h240 v-69q0 -60 -6 -118t-20 -113zM186 445q20 54 31 103t11 95v30h-143v62h213v-71q0 -56 -10 -115t-33 -119z" />
<glyph unicode="&#xaf95;" d="M511 196q56 0 108 -10.5t91.5 -31t63 -51t23.5 -70.5v-30q0 -40 -23.5 -70.5t-63 -51t-91.5 -31t-108 -10.5t-108 10.5t-91.5 31t-63 51t-23.5 70.5v31q0 40 23.5 70.5t63 50.5t91.5 30.5t108 10.5zM511 -100q40 0 79 6.5t70 20t50 33.5t19 47v22q0 27 -19 47t-50 33.5 t-70 20t-79 6.5t-79 -6.5t-70 -19.5t-50 -33t-19 -47v-23q0 -27 19 -47t50 -33.5t70 -20t79 -6.5zM658 294q-44 -5 -100 -9.5t-129 -7.5t-165.5 -5t-210.5 -2v62h153.5t126.5 2v192h70v-190q79 3 137.5 7.5t111.5 10.5zM792 223h-70v555h70v-555zM485 427q13 45 20 96.5 t7 99.5v50h-170v62h240v-89q0 -60 -6 -118t-20 -113zM185 425q20 54 31 103t11 95v50h-143v62h213v-91q0 -56 -10 -115t-33 -119z" />
<glyph unicode="&#xaf9c;" d="M356 54v285h72v-285h103v285h72v-285h272v-61h-840v61h321zM663 213q23 91 32.5 175.5t9.5 177.5v70h-255v61h325v-94q0 -110 -9 -211.5t-33 -190.5zM216 219q38 97 56.5 185.5t18.5 179.5v52h-196v61h266v-76q0 -108 -18 -211t-59 -209z" />
<glyph unicode="&#xafb8;" d="M755 718v-85q0 -80 -6 -159t-26 -163h152v-61h-385v-386h-71v386h-384v61h248q11 36 19 76t13.5 79t8 74.5t2.5 62.5v54h-221v61h290v-84q0 -78 -9 -163t-31 -160h297q21 80 27.5 151.5t6.5 139.5v55h-232v61h301z" />
<glyph unicode="&#xafb9;" d="M144 167h273v181h-382v60h258q22 64 30 126.5t8 116.5v25h-221v61h290v-55q0 -65 -6 -133.5t-28 -140.5h277q22 64 30 126.5t8 116.5v25h-222v61h291v-55q0 -65 -6 -133.5t-28 -140.5h159v-60h-388v-181h267v-310h-70v249h-540v61z" />
<glyph unicode="&#xafbc;" d="M750 730v-73q0 -66 -6 -134.5t-29 -146.5h160v-60h-375v-235h-70v235h-395v60h256q23 66 31.5 130.5t8.5 119.5v43h-221v61h290v-73q0 -66 -6 -134.5t-29 -146.5h276q23 66 31.5 130.5t8.5 119.5v43h-222v61h291zM231 -63h539v-62h-610v294h71v-232z" />
<glyph unicode="&#xafc0;" d="M750 747v-44q0 -61 -5.5 -126t-24.5 -132h155v-60h-385v-134h260v-224h-521v-108h548v-59h-617v225h521v107h-526v59h265v134h-385v60h263q19 60 26 118t7 109v14h-221v61h290v-44q0 -61 -5.5 -126t-24.5 -132h278q19 60 26 118t7 109v14h-222v61h291z" />
<glyph unicode="&#xafc7;" d="M750 747v-44q0 -61 -5.5 -126t-24.5 -132h155v-60h-385v-138h-70v138h-385v60h263q19 60 26 118t7 109v14h-221v61h290v-44q0 -61 -5.5 -126t-24.5 -132h278q19 60 26 118t7 109v14h-222v61h291zM475 -16q0 22 10 43t29.5 37.5t48 26.5t65.5 10t65.5 -10t48 -26.5 t29.5 -37.5t10 -43v-24q0 -22 -10 -43t-29.5 -37.5t-48 -26.5t-65.5 -10t-65.5 10t-48 26.5t-29.5 37.5t-10 43v24zM408 249v-222h-206v-107h59q19 0 42 1t47 2.5t46 3.5t39 4l6 -58q-39 -6 -90.5 -9.5t-102.5 -3.5h-111v225h206v104h-211v60h276zM661 195h137v-56h-341v56 h135v89h69v-89zM720 -19q0 25 -24 45t-68 20t-68 -20t-24 -45v-18q0 -25 24 -45t68 -20t68 20t24 45v18z" />
<glyph unicode="&#xafc8;" d="M750 737v-52q0 -63 -6 -130t-26 -137h157v-60h-386v-162h263v-330h-594v330h261v162h-384v60h261q20 63 27.5 123t7.5 113v22h-221v61h290v-52q0 -63 -6 -130t-26 -137h278q20 63 27.5 123t7.5 113v22h-222v61h291zM226 -71h458v205h-458v-205z" />
<glyph unicode="&#xafc9;" d="M753 234v-369h-596v369h69v-127h458v127h69zM750 742v-51q0 -63 -6 -130t-26 -136h157v-60h-385v-174h-70v174h-385v60h261q20 63 27.5 123t7.5 112v21h-221v61h290v-51q0 -63 -6 -130t-26 -136h278q20 63 27.5 123t7.5 112v21h-222v61h291zM684 -72v117h-458v-117h458z " />
<glyph unicode="&#xafcb;" d="M750 740v-59q0 -65 -6 -133.5t-28 -140.5h159v-60h-385v-143h-70v143h-385v60h258q22 64 30 126.5t8 116.5v29h-221v61h290v-59q0 -65 -6 -133.5t-28 -140.5h277q22 64 30 126.5t8 116.5v29h-222v61h291zM455 26q-10 -17 -31.5 -32t-52.5 -31q-58 -29 -120.5 -55 t-116.5 -46l-26 56q63 23 113.5 43t104.5 46q27 13 45.5 25.5t29 28t15 35.5t4.5 50v25h70v-25q0 -30 4.5 -50t15 -35.5t29 -28t45.5 -25.5q54 -26 104.5 -46t113.5 -43l-26 -56q-54 20 -116.5 46t-120.5 55q-31 16 -52.5 31t-31.5 32z" />
<glyph unicode="&#xafcd;" d="M750 737v-54q0 -64 -6 -132.5t-28 -140.5h159v-60h-385v-148q51 -3 96.5 -15.5t79 -33.5t53.5 -50t20 -66v-30q0 -40 -23 -71t-62 -52.5t-90.5 -32.5t-108.5 -11t-108.5 11t-90.5 32.5t-62 52.5t-23 71v31q0 37 19.5 66t53.5 50t79.5 33t96.5 15v148h-385v60h259 q22 64 29.5 126t7.5 116v24h-221v61h290v-54q0 -64 -6 -132.5t-28 -140.5h278q22 64 29.5 126t7.5 116v24h-222v61h291zM455 -100q40 0 79 7t69.5 21t49 35t18.5 48v22q0 27 -18.5 48t-49 35t-69.5 21t-79 7q-41 0 -79.5 -7t-69 -21t-49 -34.5t-18.5 -47.5v-23 q0 -27 18.5 -48t49 -35t69 -21t79.5 -7z" />
<glyph unicode="&#xafce;" d="M750 737v-52q0 -62 -5.5 -128t-25.5 -135h156v-60h-386v-130h-70v130h-384v60h262q20 62 27 121.5t7 110.5v22h-221v61h290v-52q0 -62 -5.5 -128t-25.5 -135h278q20 62 27 121.5t7 110.5v22h-222v61h291zM455 4q-12 -20 -43.5 -37t-76.5 -37q-45 -18 -91.5 -36t-90.5 -33 l-25 55q47 16 96 34t91 35q31 13 51.5 24.5t32.5 24t17 27t5 34.5v31h-286v61h640v-61h-286v-31q0 -20 5 -35t17 -27.5t32.5 -23.5t51.5 -24q42 -17 91 -35t96 -34l-25 -55q-44 15 -90 33t-91 36q-48 20 -78 37t-42 37h-1z" />
<glyph unicode="&#xafd4;" d="M672 302q-68 -7 -136.5 -11t-152.5 -7v-391h-72v388q-55 -1 -118.5 -1.5t-138.5 -0.5v62h159q20 70 28.5 139.5t8.5 132.5v44h-155v61h221v-89q0 -73 -8.5 -146.5t-25.5 -139.5q60 1 112 3t98 4q15 66 21 128t6 122v57h-156v61h220v-102q0 -66 -6 -135.5t-18 -126.5 q58 3 106 9zM740 165v613h70v-914h-70v239h-227v62h227z" />
<glyph unicode="&#xafdc;" d="M803 222v-210h-514v-94h541v-59h-610v211h514v93h-519v59h588zM104 741h213v-64q0 -51 -6 -97.5t-20 -94.5q55 2 102.5 3.5t89.5 3.5q13 47 17.5 83.5t4.5 73.5v32h-144v60h210v-74q0 -83 -18 -171q29 2 55.5 4.5t52.5 5.5l6 -60q-64 -8 -139 -13t-169 -7v-160h-71v159 q-53 -2 -111.5 -2h-124.5v61h168q19 51 25 91t6 84v22h-147v60zM733 378v400h70v-513h-70v54h-217v59h217z" />
<glyph unicode="&#xafe8;" d="M104 736h213v-64q0 -48 -6.5 -103.5t-22.5 -109.5q108 1 191 6q15 53 20.5 92.5t5.5 76.5v42h-144v60h210v-84q0 -40 -5 -86t-16 -97q29 2 57 5t54 6l6 -60q-64 -8 -139 -13t-169 -7v-168h-71v167q-53 -2 -111.5 -2h-124.5v61h166q20 52 26.5 98t6.5 88v32h-147v60z M496 -139q-19 15 -45.5 37t-44.5 38q-27 24 -45.5 41t-26.5 31q-5 -9 -21.5 -25t-49.5 -42q-21 -17 -47 -36.5t-61 -44.5l-38 51q13 9 29 20.5l32 23t30 22.5t24 19q25 20 38.5 35t20 29.5t7.5 29.5t1 35v59h69v-59q0 -27 3 -44t10.5 -31t21.5 -27t35 -32q11 -10 27.5 -23.5 t30.5 -23.5q14 10 30.5 23.5t27.5 23.5q21 19 35 32t21.5 27t10.5 31t3 44v59h69v-59q0 -20 1 -35t7.5 -29.5t20 -29.5t38.5 -35q10 -8 24 -19t30 -22.5l32 -23t29 -20.5l-38 -51q-35 25 -61 44.5t-47 36.5q-33 26 -49.5 42t-21.5 25q-8 -14 -26.5 -31t-45.5 -41 q-18 -16 -44.5 -38t-45.5 -37zM733 341v437h70v-553h-70v56h-217v60h217z" />
<glyph unicode="&#xafe9;" d="M524 -160q-59 0 -110.5 10t-90 30t-61 49t-22.5 67v33q0 37 22.5 66t61 49t90 30t110.5 10t110.5 -10t90 -30t61 -49t22.5 -67v-32q0 -38 -22.5 -67t-61 -49t-90 -30t-110.5 -10zM104 736h213v-64q0 -48 -6.5 -106t-22.5 -113q107 1 192 6q15 52 20 92t5 76v49h-144v60 h210v-89q0 -82 -21 -184q29 2 57 5t54 6l6 -60q-64 -8 -139 -13t-169 -7v-189h-71v188q-53 -2 -111.5 -2h-124.5v61h166q20 52 26.5 97.5t6.5 87.5v39h-147v60zM524 124q-43 0 -82 -7t-69 -19.5t-47.5 -31t-17.5 -42.5v-24q0 -24 17.5 -42.5t47.5 -31t69 -19.5t82 -7t82 7 t69 19.5t47.5 31t17.5 42.5v24q0 24 -17.5 42.5t-47.5 31t-69 19.5t-82 7zM733 329v449h70v-571h-70v62h-217v60h217z" />
<glyph unicode="&#xaff0;" d="M71 709h185v-84q0 -29 -2.5 -63t-7.5 -68.5t-12 -68.5t-15 -64l165 3q17 67 22 128t5 104v52h-115v61h180v-97q0 -51 -5 -118t-19 -127q20 1 39 1.5t41 2.5l3 -61q-54 -3 -108 -5.5t-116 -3.5v-378h-71v377q-46 -1 -97 -1h-109v62h116q20 69 30.5 133.5t10.5 114.5v39 h-120v61zM589 191v571h70v-873h-70v240h-172v62h172zM828 -136h-70v914h70v-914z" />
<glyph unicode="&#xaff1;" d="M72 730h187v-75q0 -54 -7.5 -99t-24.5 -99q90 1 161 6q16 56 20.5 94.5t4.5 72.5v39h-116v61h179v-79q0 -41 -4 -86t-16 -98l75 6l4 -59q-45 -5 -100.5 -8.5t-125.5 -6.5v-195h-71v192q-46 -2 -97 -2h-108v61h124q10 30 17.5 54t11.5 45t6 40.5t2 39.5v35h-122v61z M208 148h608v-291h-70v229h-538v62zM657 203h-69v68h-170v59h170v436h69v-563zM819 202h-69v576h69v-576z" />
<glyph unicode="&#xaff4;" d="M72 725h187v-84q0 -115 -31 -208q89 1 160 6q15 52 20 93.5t5 83.5v48h-116v61h179v-88q0 -47 -4.5 -96.5t-15.5 -97.5l75 6l4 -59q-45 -5 -100.5 -8.5t-125.5 -6.5v-185h-71v182q-46 -2 -97 -2h-108v61h123q21 55 29.5 97.5t8.5 91.5v44h-122v61zM657 114h-69v116h-170 v59h170v477h69v-652zM292 -63h548v-62h-619v253h71v-191zM819 94h-69v684h69v-684z" />
<glyph unicode="&#xaff8;" d="M819 209v-203h-515v-87h542v-59h-611v204h515v86h-520v59h589zM72 735h187v-68q0 -50 -6 -93.5t-22 -93.5q90 1 161 6q14 51 17.5 87.5t3.5 68.5v32h-116v61h179v-72q0 -38 -3.5 -81t-14.5 -92l73 6l4 -59q-45 -5 -100.5 -8.5t-125.5 -6.5v-166h-71v163q-46 -2 -97 -2 h-108v61h129q20 54 26 92t6 76v28h-122v61zM657 256h-69v55h-167v57h167v398h69v-510zM819 255h-69v523h69v-523z" />
<glyph unicode="&#xb000;" d="M236 165h583v-299h-583v299zM72 730h187v-68q0 -54 -7.5 -99t-24.5 -99q90 1 161 6q16 56 20.5 94.5t4.5 72.5v32h-116v61h179v-72q0 -41 -4 -86t-16 -98l75 6l4 -59q-45 -5 -100.5 -8.5t-125.5 -6.5v-185h-71v182q-46 -2 -97 -2h-108v61h124q10 30 17.5 54t11.5 45 t6 40.5t2 39.5v28h-122v61zM304 -71h447v173h-447v-173zM657 220h-69v61h-170v59h170v426h69v-546zM819 219h-69v559h69v-559z" />
<glyph unicode="&#xb001;" d="M816 191v-326h-584v326h69v-97h446v97h69zM72 730h187v-68q0 -52 -6.5 -96t-23.5 -97q92 2 161 6q15 53 19 91t4 71v32h-116v61h179v-72q0 -40 -4 -84t-15 -95l74 6l4 -59q-45 -5 -100.5 -8.5t-125.5 -6.5v-172h-71v169q-46 -2 -97 -2h-108v61h127q21 56 27.5 95.5 t6.5 78.5v28h-122v61zM657 238h-69v58h-170v59h170v411h69v-528zM747 -72v104h-446v-104h446zM819 237h-69v541h69v-541z" />
<glyph unicode="&#xb004;" d="M72 730h187v-68q0 -52 -6.5 -96t-23.5 -97q92 2 161 6q15 53 19 91t4 71v32h-116v61h179v-72q0 -40 -4 -84t-15 -95l74 6l4 -59q-45 -5 -100.5 -8.5t-125.5 -6.5v-177h-71v174q-46 -2 -97 -2h-108v61h127q21 56 27.5 95.5t6.5 78.5v28h-122v61zM500 -139 q-32 27 -57.5 49.5t-44.5 39.5q-53 48 -61 66q-6 -10 -20.5 -26t-50.5 -45q-19 -17 -45.5 -37.5t-61.5 -46.5l-38 50l58 43.5t45 35.5q28 24 44 41.5t24 33.5t9.5 33.5t1.5 41.5v44h69v-48q0 -23 1 -38.5t7 -29.5t19.5 -30t37.5 -39q25 -26 63 -54q19 14 35 28t28 26 q24 23 37.5 39t19.5 30t7 29.5t1 38.5v48h69v-44q0 -24 1.5 -41.5t9.5 -33.5t23.5 -33.5t44.5 -41.5q19 -16 45 -35.5l58 -43.5l-38 -50q-35 26 -61.5 46.5t-45.5 37.5q-36 29 -50.5 45t-20.5 26q-8 -18 -61 -66q-19 -17 -44.5 -39.5t-57.5 -49.5zM657 238h-69v61h-170v59 h170v408h69v-528zM819 227h-69v551h69v-551z" />
<glyph unicode="&#xb00c;" d="M93 718h223v-94q0 -71 -8 -146t-24 -141q61 1 113.5 2.5t99.5 4.5q14 65 19 128.5t5 122.5v62h-158v61h222v-107q0 -64 -4.5 -134t-15.5 -129l100 9l7 -61q-66 -6 -132 -10.5t-147 -7.5v-385h-72v383q-57 -2 -122.5 -2.5t-144.5 -0.5v62h161q18 69 26.5 140t8.5 133v49 h-157v61zM810 -136h-70v914h70v-914z" />
<glyph unicode="&#xb010;" d="M102 731h215v-84q0 -54 -7 -117.5t-22 -120.5q55 2 103 3.5t90 3.5q14 48 20 93t6 102v60h-146v60h212v-104q0 -47 -5.5 -100.5t-16.5 -106.5q30 2 58 5t55 6l6 -60q-60 -8 -130 -12.5t-157 -7.5v-167h-71v165q-58 -1 -122 -1.5t-138 -0.5v61h166q17 49 25 99.5t8 113.5 v50h-149v60zM291 -63h535v-62h-606v257h71v-195zM803 71h-70v707h70v-707z" />
<glyph unicode="&#xb014;" d="M803 234v-216h-514v-100h541v-59h-610v217h514v99h-519v59h588zM102 741h215v-46q0 -49 -6 -110.5t-22 -115.5q56 2 103.5 3.5t90.5 3.5q7 24 11.5 45t7.5 42t4 44t1 50v24h-146v60h212v-66q0 -42 -5 -93t-16 -102q30 2 57.5 5t54.5 6l6 -60q-61 -8 -131.5 -12.5 t-158.5 -7.5v-133h-71v131q-57 -1 -121 -1.5t-136 -0.5v61h167q19 50 25.5 94t6.5 100v19h-149v60zM803 277h-70v501h70v-501z" />
<glyph unicode="&#xb01c;" d="M220 170h583v-304h-583v304zM102 736h215v-59q0 -23 -1.5 -51t-5 -58.5t-9.5 -62t-14 -59.5q56 2 104 3.5t90 3.5q15 53 20.5 95t5.5 89v39h-146v60h212v-79q0 -38 -5.5 -92t-16.5 -108q30 2 58 5t55 6l6 -60q-60 -8 -130 -12.5t-157 -7.5v-161h-71v159q-58 -1 -122 -1.5 t-138 -0.5v61h165q20 53 27 101.5t7 100.5v29h-149v60zM288 -71h447v178h-447v-178zM803 224h-70v554h70v-554z" />
<glyph unicode="&#xb01d;" d="M803 202v-337h-582v337h69v-109h444v109h69zM102 741h215v-53q0 -22 -2 -51t-5.5 -60.5t-9.5 -64t-14 -62.5q56 2 103.5 3.5t90.5 3.5q8 27 13 50t8 45t4.5 45.5t1.5 50.5v33h-146v60h212v-73q0 -19 -1.5 -43.5t-4 -51.5t-7 -55.5t-10.5 -56.5q30 2 58 4.5t56 6.5l6 -60 q-60 -8 -130 -12.5t-157 -7.5v-150h-71v148q-58 -1 -122 -1.5t-138 -0.5v61h164q20 53 27.5 101.5t7.5 102.5v28h-149v60zM734 -72v103h-444v-103h444zM803 246h-70v532h70v-532z" />
<glyph unicode="&#xb028;" d="M755 718v-83q0 -79 -5.5 -157.5t-25.5 -161.5h151v-61h-224v-390h-71v390h-250v-390h-71v390h-224v61h249q11 35 19 75t13 78.5t7.5 74t2.5 61.5v52h-221v61h290v-82q0 -77 -8.5 -161t-30.5 -159h297q20 79 26.5 150t6.5 138v53h-232v61h301z" />
<glyph unicode="&#xb044;" d="M646 172q23 95 32.5 185.5t9.5 192.5v79h-226v61h296v-103q0 -62 -2 -116.5t-7 -105.5t-13 -101t-20 -103zM263 177q18 54 30.5 101.5t20 92.5t11 90t3.5 95v73h-230v61h300v-97q0 -57 -2.5 -110t-10 -104.5t-20.5 -104.5t-33 -110zM875 54v-61h-840v61h840z" />
<glyph unicode="&#xb045;" d="M291 392q23 66 31.5 130t8.5 119v33h-221v61h290v-63q0 -66 -6 -134.5t-28 -145.5h275q23 66 31.5 130t8.5 119v33h-222v61h291v-63q0 -66 -6 -134.5t-28 -145.5h159v-61h-840v61h256zM142 193h612v-336h-70v275h-542v61z" />
<glyph unicode="&#xb048;" d="M291 352q23 66 31.5 130t8.5 119v66h-221v61h290v-96q0 -66 -6 -134.5t-28 -145.5h275q23 66 31.5 130t8.5 119v66h-222v61h291v-96q0 -66 -6 -134.5t-28 -145.5h159v-61h-840v61h256zM231 -63h539v-62h-610v299h71v-237z" />
<glyph unicode="&#xb04a;" d="M750 735v-59q0 -65 -6 -133.5t-28 -140.5h159v-60h-840v60h258q22 64 30 126.5t8 116.5v29h-221v61h290v-59q0 -65 -6 -133.5t-28 -140.5h277q22 64 30 126.5t8 116.5v29h-222v61h291zM469 -18q0 22 10 43t29.5 37t48 25.5t65.5 9.5t65.5 -10t48 -26t29.5 -36.5t10 -42.5 v-24q0 -22 -10 -42.5t-29.5 -36.5t-48 -26t-65.5 -10t-65.5 10t-48 26t-29.5 36.5t-10 42.5v24zM218 -73h54q29 0 71.5 2t85.5 8l7 -58q-39 -6 -88 -8.5t-97 -2.5h-102v361h69v-302zM654 197h148v-56h-366v56h151v84h67v-84zM714 -21q0 25 -24 44t-68 19t-68 -19t-24 -44 v-18q0 -25 24 -44t68 -19t68 19t24 44v18z" />
<glyph unicode="&#xb04c;" d="M750 264v-231h-521v-113h548v-60h-617v232h521v112h-526v60h595zM750 744v-32q0 -65 -6 -133.5t-28 -140.5h159v-60h-840v60h258q22 64 30 127t8 118h-221v61h290v-32q0 -65 -6 -133.5t-28 -140.5h277q22 64 30 127t8 118h-222v61h291z" />
<glyph unicode="&#xb04e;" d="M750 744v-32q0 -65 -6 -133.5t-28 -140.5h159v-60h-840v60h258q22 64 30 127t8 118h-221v61h290v-32q0 -65 -6 -133.5t-28 -140.5h277q22 64 30 127t8 118h-222v61h291zM487 -140v403h281v-403h-281zM420 263v-229h-213v-114h58q19 0 42 1t47 2.5t46 3.5t39 4l5 -59 q-38 -5 -89.5 -8.5t-102.5 -3.5h-111v232h213v111h-218v60h284zM553 204v-285h149v285h-149z" />
<glyph unicode="&#xb053;" d="M750 744v-32q0 -65 -6 -133.5t-28 -140.5h159v-60h-840v60h258q22 64 30 127t8 118h-221v61h290v-32q0 -65 -6 -133.5t-28 -140.5h277q22 64 30 127t8 118h-222v61h291zM475 -8q0 23 10 45t29.5 39t48 27t65.5 10t65.5 -10.5t48 -27.5t29.5 -38.5t10 -44.5v-28 q0 -23 -10.5 -44.5t-30 -38.5t-48 -27.5t-64.5 -10.5q-37 0 -65.5 10.5t-48 27.5t-29.5 38.5t-10 44.5v28zM411 269v-232h-209v-117h56q19 0 42 1t47 2.5t46 3.5t39 4l6 -58q-39 -6 -90.5 -9.5t-102.5 -3.5h-108v235h209v114h-214v60h279zM661 215h137v-56h-341v56h135v89 h69v-89zM720 -12q0 26 -24.5 48t-67.5 22t-67.5 -22t-24.5 -48v-20q0 -26 24.5 -48t67.5 -22t67.5 22t24.5 48v20z" />
<glyph unicode="&#xb054;" d="M158 206h594v-340h-594v340zM292 397q23 66 31 129t8 118v30h-221v61h290v-60q0 -66 -5.5 -133.5t-28.5 -144.5h276q23 66 31 129t8 118v30h-222v61h291v-60q0 -66 -5.5 -133.5t-28.5 -144.5h159v-61h-840v61h257zM226 -71h458v214h-458v-214z" />
<glyph unicode="&#xb055;" d="M753 247v-382h-596v382h69v-130h458v130h69zM750 740v-60q0 -65 -6 -133.5t-28 -140.5h159v-60h-840v60h258q22 64 30 126.5t8 116.5v30h-221v61h290v-60q0 -65 -6 -133.5t-28 -140.5h277q22 64 30 126.5t8 116.5v30h-222v61h291zM684 -72v127h-458v-127h458z" />
<glyph unicode="&#xb057;" d="M291 377q23 66 31.5 130t8.5 119v48h-221v61h290v-78q0 -66 -6 -134.5t-28 -145.5h275q23 66 31.5 130t8.5 119v48h-222v61h291v-78q0 -66 -6 -134.5t-28 -145.5h159v-61h-840v61h256zM456 30q-3 -7 -11.5 -15t-20.5 -15.5t-26 -15t-27 -14.5q-29 -15 -60.5 -30.5 t-62.5 -29.5t-59.5 -26.5t-52.5 -22.5l-29 55q25 10 55 22.5t60 26t56.5 26.5t44.5 22q33 17 52 30.5t29 28.5t13 33t3 45v72h70v-72q0 -27 3.5 -46t13.5 -33.5t28.5 -27.5t49.5 -29q48 -24 102.5 -49t115.5 -49l-29 -54q-48 20 -110 48.5t-125 60.5q-26 14 -51.5 29.5 t-30.5 29.5h-1z" />
<glyph unicode="&#xb059;" d="M455 215q58 0 109.5 -11t90.5 -32.5t61.5 -53t22.5 -72.5v-36q0 -42 -22.5 -73.5t-61.5 -52.5t-90.5 -32t-109.5 -11t-109.5 11t-90.5 32t-61.5 52.5t-22.5 73.5v36q0 42 22.5 73.5t61.5 53t90.5 32t109.5 10.5zM292 391q23 66 31 129t8 118v36h-221v61h290v-66 q0 -66 -5.5 -133.5t-28.5 -144.5h276q23 66 31 129t8 118v36h-222v61h291v-66q0 -66 -5.5 -133.5t-28.5 -144.5h159v-61h-840v61h257zM455 -99q41 0 80 7.5t69 22t48.5 35.5t18.5 48v28q0 27 -18.5 48t-48.5 35.5t-69 22t-80 7.5t-80 -7.5t-69 -22t-48.5 -35.5t-18.5 -48 v-28q0 -27 18.5 -48t48.5 -35.5t69 -22t80 -7.5z" />
<glyph unicode="&#xb05d;" d="M155 261h600v-61h-531v-108h522v-60h-522v-110h548v-61h-617v400zM750 744v-32q0 -65 -6 -133.5t-28 -140.5h159v-60h-840v60h258q22 64 30 127t8 118h-221v61h290v-32q0 -65 -6 -133.5t-28 -140.5h277q22 64 30 127t8 118h-222v61h291z" />
<glyph unicode="&#xb07c;" d="M796 -136h-71v914h71v-914zM304 82q67 76 106 128.5t58 94t24 77.5t5 81v165h-141v64h209v-232q0 -54 -6 -96.5t-27.5 -88t-63.5 -101t-113 -136.5zM54 166q47 48 79.5 84.5t53.5 66t32.5 53.5t17 47t6.5 47.5t1 54.5v109h-160v64h228v-176q0 -36 -2 -65t-9 -55.5 t-20 -53.5t-36.5 -59t-58 -71t-83.5 -91z" />
<glyph unicode="&#xb07d;" d="M198 188h590v-331h-70v269h-520v62zM788 242h-70v536h70v-536zM57 357q66 50 103.5 83t56 60.5t23 55.5t4.5 68v38h-158v61h224v-108q0 -41 -6 -73.5t-28 -66.5t-64.5 -73.5t-115.5 -93.5zM313 306q44 37 75 65t51.5 51t32 44t17 43t7 48t1.5 60v45h-143v61h210v-116 q0 -49 -4.5 -87.5t-25 -76.5t-62.5 -81.5t-117 -102.5z" />
<glyph unicode="&#xb080;" d="M788 124h-70v654h70v-654zM297 -63h514v-62h-585v298h71v-236zM57 329q66 50 103.5 83t56 60.5t23 55.5t4.5 68v61h-158v61h224v-131q0 -41 -6 -73.5t-28 -66.5t-64.5 -73.5t-115.5 -93.5zM313 279q44 37 75 65t51.5 51t32 44t17 43t7 48t1.5 60v67h-143v61h210v-138 q0 -49 -4.5 -87.5t-25 -76.5t-62.5 -81.5t-117 -102.5z" />
<glyph unicode="&#xb084;" d="M788 320h-70v458h70v-458zM788 266v-232h-492v-113h516v-60h-585v232h492v112h-497v61h566zM58 415q67 48 104.5 78.5t55.5 56t22 51.5t4 65v10h-158v61h224v-80q0 -41 -5.5 -72t-27.5 -62.5t-64.5 -69t-117.5 -89.5zM314 366q44 34 75 60.5t51.5 48t32 41.5t17 41.5 t6.5 47.5t1 60v11h-143v61h210v-82q0 -49 -4 -87t-24 -74.5t-62.5 -78t-119.5 -98.5z" />
<glyph unicode="&#xb08c;" d="M788 262h-70v516h70v-516zM227 208h561v-342h-561v342zM295 -71h425v216h-425v-216zM57 364q66 50 103.5 83t56 60.5t23 55.5t4.5 68v31h-158v61h224v-101q0 -41 -6 -73.5t-28 -66.5t-64.5 -73.5t-115.5 -93.5zM313 313q44 37 75 65t51.5 51t32 44t17 43t7 48t1.5 60v38 h-143v61h210v-109q0 -49 -4.5 -87.5t-25 -76.5t-62.5 -81.5t-117 -102.5z" />
<glyph unicode="&#xb08d;" d="M788 258v-393h-560v393h69v-129h422v129h69zM719 -72v139h-422v-139h422zM314 337q44 34 75 60.5t51.5 48t32 41.5t17 41.5t6.5 47.5t1 60v26h-143v61h210v-97q0 -49 -4 -87t-24 -74.5t-62.5 -78t-119.5 -98.5zM58 386q67 48 104.5 78.5t55.5 56t22 51.5t4 65v25h-158v61 h224v-95q0 -41 -5.5 -72t-27.5 -62.5t-64.5 -69t-117.5 -89.5zM788 312h-70v466h70v-466z" />
<glyph unicode="&#xb08f;" d="M788 196h-70v582h70v-582zM464 235h70v-79q0 -31 5.5 -53t18 -39.5t32.5 -31.5t49 -29q39 -20 91 -43t97 -41l-29 -57q-49 20 -98 43.5t-83 40.5q-100 50 -118 87q-18 -37 -118 -87q-34 -17 -83 -40.5t-98 -43.5l-30 57q22 9 47.5 19.5t50 21.5t48 22t43.5 21 q28 14 47.5 28t32.5 31.5t19 40t6 53.5v79zM57 358q66 50 103.5 83t56 60.5t23 55.5t4.5 68v37h-158v61h224v-107q0 -41 -6 -73.5t-28 -66.5t-64.5 -73.5t-115.5 -93.5zM313 307q44 37 75 65t51.5 51t32 44t17 43t7 48t1.5 60v44h-143v61h210v-115q0 -49 -4.5 -87.5 t-25 -76.5t-62.5 -81.5t-117 -102.5z" />
<glyph unicode="&#xb091;" d="M57 351q66 50 103.5 83t56 60.5t23 55.5t4.5 68v41h-158v61h224v-111q0 -41 -6 -73.5t-28 -66.5t-64.5 -73.5t-115.5 -93.5zM313 300q44 37 75 65t51.5 51t32 44t17 43t7 48t1.5 60v48h-143v61h210v-119q0 -49 -4.5 -87.5t-25 -76.5t-62.5 -81.5t-117 -102.5zM515 214 q56 0 106.5 -11.5t88.5 -33t60.5 -53t22.5 -70.5v-38q0 -39 -22.5 -70.5t-60.5 -53t-88.5 -33t-106.5 -11.5t-106.5 11.5t-88.5 33t-60.5 53t-22.5 70.5v38q0 40 22.5 71.5t60.5 53t88.5 32.5t106.5 11zM515 -100q40 0 78 7.5t67 22t47 35t18 47.5v30q0 27 -18 47.5t-47 35 t-67 22t-78 7.5t-78 -7.5t-67 -22t-47 -35t-18 -47.5v-30q0 -27 18 -47.5t47 -35t67 -22t78 -7.5zM788 234h-70v544h70v-544z" />
<glyph unicode="&#xb098;" d="M743 443h152v-63h-152v-516h-71v914h71v-335zM169 179h113q72 0 147.5 5.5t157.5 19.5l9 -63q-81 -14 -165 -20t-156 -6h-177v588h71v-524z" />
<glyph unicode="&#xb099;" d="M161 728v-333q73 0 128 1t103.5 3.5t95.5 7t104 12.5l8 -63q-59 -8 -108 -13t-104 -7.5t-125.5 -3.5t-172.5 -1v397h71zM179 200h574v-343h-70v280h-504v63zM753 558h140v-62h-140v-242h-70v524h70v-220z" />
<glyph unicode="&#xb09a;" d="M161 728v-322q73 0 128 1t103.5 3.5t95.5 7t104 12.5l8 -63q-59 -8 -108 -13t-104 -7.5t-125.5 -3.5t-172.5 -1v386h71zM753 564h140v-62h-140v-240h-70v516h70v-214zM137 208h294v-351h-69v289h-225v62zM481 208h272v-351h-69v289h-203v62z" />
<glyph unicode="&#xb09c;" d="M162 723v-359q73 0 128 1t103.5 3.5t95.5 7t104 12.5l8 -63q-59 -8 -108 -13t-104 -7.5t-125.5 -3.5t-172.5 -1v423h71zM754 524h140v-62h-140v-337h-70v653h70v-254zM277 -62h505v-63h-576v305h71v-242z" />
<glyph unicode="&#xb09f;" d="M201 216h555v-62h-484v-225h501v-63h-572v350zM161 728v-315q73 0 128 1t103.5 3.5t95.5 7t104 12.5l8 -63q-59 -8 -108 -13t-104 -7.5t-125.5 -3.5t-172.5 -1v379h71zM753 569h140v-62h-140v-237h-70v508h70v-209z" />
<glyph unicode="&#xb0a0;" d="M753 278v-238h-483v-119h507v-60h-576v238h483v118h-488v61h557zM161 743v-293q73 0 128 1t103.5 3.5t95.5 7t104 12.5l8 -63q-59 -8 -108 -13t-104 -7.5t-125.5 -3.5t-172.5 -1v357h71zM753 594h140v-62h-140v-200h-70v446h70v-184z" />
<glyph unicode="&#xb0a1;" d="M438 276v-236h-224v-119h119q19 0 42 1t47 2.5t46 3.5t39 4l5 -59q-38 -5 -89.5 -8.5t-102.5 -3.5h-172v237h224v118h-229v60h295zM161 743v-293q73 0 128 1t103.5 3.5t95.5 7t104 12.5l8 -63q-59 -8 -108 -13t-104 -7.5t-125.5 -3.5t-172.5 -1v357h71zM753 276v-425h-69 v364h-192v61h261zM753 595h140v-62h-140v-203h-70v448h70v-183z" />
<glyph unicode="&#xb0a2;" d="M480 -139v415h273v-415h-273zM413 276v-236h-209v-119h54q19 0 42 1t47 2.5t46 3.5t39 4l5 -59q-38 -5 -89.5 -8.5t-102.5 -3.5h-107v237h209v118h-214v60h280zM161 743v-293q73 0 128 1t103.5 3.5t95.5 7t104 12.5l8 -63q-59 -8 -108 -13t-104 -7.5t-125.5 -3.5 t-172.5 -1v357h71zM546 217v-297h141v297h-141zM753 595h140v-62h-140v-203h-70v448h70v-183z" />
<glyph unicode="&#xb0a8;" d="M203 219h550v-353h-550v353zM271 -71h414v227h-414v-227zM161 728v-315q73 0 128 1t103.5 3.5t95.5 7t104 12.5l8 -63q-59 -8 -108 -13t-104 -7.5t-125.5 -3.5t-172.5 -1v379h71zM753 569h140v-62h-140v-234h-70v505h70v-209z" />
<glyph unicode="&#xb0a9;" d="M753 263v-397h-549v397h69v-129h411v129h69zM684 -71v143h-411v-143h411zM161 728v-300q73 0 128 1t103.5 3.5t95.5 7t104 12.5l8 -63q-59 -8 -108 -13t-104 -7.5t-125.5 -3.5t-172.5 -1v364h71zM753 580h140v-62h-140v-201h-70v461h70v-198z" />
<glyph unicode="&#xb0ab;" d="M440 236h70v-80q0 -31 5.5 -53t18 -39.5t32.5 -31.5t49 -29q39 -20 91 -43t97 -41l-29 -57q-49 20 -98 43.5t-83 40.5q-100 50 -118 87q-18 -37 -118 -87q-34 -17 -83 -40.5t-98 -43.5l-30 57q22 9 47.5 19.5t50 21.5t48 22t43.5 21q28 14 47.5 28t32.5 31.5t19 40 t6 53.5v80zM161 723v-327q73 0 128 1t103.5 3.5t95.5 7t104 12.5l8 -63q-59 -8 -108 -13t-104 -7.5t-125.5 -3.5t-172.5 -1v391h71zM753 555h140v-62h-140v-297h-70v582h70v-223z" />
<glyph unicode="&#xb0ac;" d="M494 -138q-84 71 -121.5 110.5t-41.5 49.5q-6 -10 -21 -27t-50 -47q-19 -17 -45 -38t-61 -48l-39 50q64 48 102 81q28 24 44 42t24 35t10 35t2 42v89h69v-92q0 -23 1.5 -39.5t7.5 -31.5t19.5 -31.5t37.5 -40.5q12 -12 27.5 -26t34.5 -29q19 15 34.5 29t27.5 26 q24 24 37.5 40.5t19.5 31.5t7.5 31.5t1.5 39.5v92h69v-89q0 -24 2 -42t10 -35t24 -35t44 -42q37 -33 102 -81l-39 -50q-35 27 -61 48t-45 38q-35 30 -50 47t-21 27q-4 -10 -41.5 -49.5t-121.5 -110.5zM161 728v-316q73 0 128 1t103.5 3.5t95.5 7t104 12.5l8 -63 q-59 -8 -108 -13t-104 -7.5t-125.5 -3.5t-172.5 -1v380h71zM754 572h140v-62h-140v-219h-70v487h70v-206z" />
<glyph unicode="&#xb0ad;" d="M486 224q56 0 105.5 -12.5t86.5 -35t58.5 -54.5t21.5 -71v-38q0 -39 -21.5 -71t-58.5 -54.5t-86.5 -35t-105.5 -12.5t-105.5 12.5t-86.5 35t-58.5 54.5t-21.5 71v38q0 40 21.5 72t58.5 54.5t86.5 34.5t105.5 12zM486 -100q40 0 77 8.5t65 23.5t45 36.5t17 47.5v32 q0 26 -17 47.5t-45 36.5t-65 23.5t-77 8.5t-77 -8.5t-65 -23.5t-45 -36.5t-17 -47.5v-32q0 -26 17 -47.5t45 -36.5t65 -23.5t77 -8.5zM161 725v-333q73 0 128 1t103.5 3.5t95.5 7t104 12.5l8 -63q-59 -8 -108 -13t-104 -7.5t-125.5 -3.5t-172.5 -1v397h71zM753 558h140v-62 h-140v-252h-70v534h70v-220z" />
<glyph unicode="&#xb0ae;" d="M482 28q-11 -21 -41.5 -43t-78.5 -45q-44 -21 -87.5 -40.5t-88.5 -37.5l-26 54q48 18 93.5 38.5t87.5 40.5q58 28 82 57t24 68v41h-259v61h584v-61h-256v-41q0 -39 23.5 -68t82.5 -57q42 -20 87.5 -40.5t93.5 -38.5l-26 -54q-45 18 -88.5 37.5t-87.5 40.5q-94 46 -119 88 zM161 728v-310q73 0 128 1t103.5 3.5t95.5 7t104 12.5l8 -63q-59 -8 -108 -13t-104 -7.5t-125.5 -3.5t-172.5 -1v374h71zM753 562h140v-62h-140v-224h-70v502h70v-216z" />
<glyph unicode="&#xb0af;" d="M447 187v104h68v-104h260v-61h-260v-23q0 -20 5 -36t17 -30t32.5 -26.5t51.5 -25.5q42 -17 89 -34.5t93 -33.5l-25 -55q-89 32 -177 68q-96 41 -120 82q-12 -21 -42 -41.5t-78 -40.5q-88 -36 -177 -68l-25 55q46 17 93 34t89 34q31 13 51.5 25.5t32.5 26.5t17 30t5 36v23 h-262v61h262zM161 733v-315q73 0 128 1t103.5 3.5t95.5 7t104 12.5l8 -63q-59 -8 -108 -13t-104 -7.5t-125.5 -3.5t-172.5 -1v379h71zM753 582h140v-62h-140v-238h-70v496h70v-196z" />
<glyph unicode="&#xb0b1;" d="M199 261h556v-61h-486v-109h477v-60h-477v-109h503v-61h-573v400zM161 743v-303q73 0 128 1t103.5 3.5t95.5 7t104 12.5l8 -63q-59 -8 -108 -13t-104 -7.5t-125.5 -3.5t-172.5 -1v367h71zM753 584h140v-62h-140v-202h-70v458h70v-194z" />
<glyph unicode="&#xb0b3;" d="M480 122q55 0 98.5 -10t74 -27.5t47 -41.5t16.5 -52v-22q0 -28 -16.5 -52t-47 -41.5t-74 -27.5t-98.5 -10t-98.5 10t-74 27.5t-47 41.5t-16.5 52v22q0 28 16.5 52t47 41.5t74 27.5t98.5 10zM161 743v-291q73 0 128 1t103.5 3.5t95.5 7t104 12.5l8 -63q-59 -8 -108 -13 t-104 -7.5t-125.5 -3.5t-172.5 -1v355h71zM480 -106q78 0 122.5 23t44.5 54v18q0 31 -44.5 54t-122.5 23t-122.5 -23t-44.5 -54v-18q0 -31 44.5 -54t122.5 -23zM444 229v92h70v-92h265v-59h-600v59h265zM753 583h140v-62h-140v-208h-70v465h70v-195z" />
<glyph unicode="&#xb0b4;" d="M603 470h143v308h70v-914h-70v543h-143v-498h-70v850h70v-289zM85 692h71v-507h64q50 0 112 4t129 16l8 -63q-69 -14 -144 -17.5t-139 -3.5h-101v571z" />
<glyph unicode="&#xb0b5;" d="M599 562h136v216h69v-529h-69v250h-136v-248h-69v515h69v-204zM209 194h595v-337h-70v275h-525v62zM144 722v-338q51 0 91.5 1.5t76.5 4t69.5 7t70.5 10.5l8 -61q-36 -6 -71 -10.5t-78.5 -7.5t-100.5 -4.5t-136 -1.5v400h70z" />
<glyph unicode="&#xb0b8;" d="M599 535h136v243h69v-648h-69v342h-136v-320h-69v614h69v-231zM293 -63h531v-62h-602v303h71v-241zM144 718v-359q51 0 91.5 1.5t76.5 4t69.5 7t70.5 10.5l8 -61q-36 -6 -71 -10.5t-78.5 -7.5t-100.5 -4.5t-136 -1.5v421h70z" />
<glyph unicode="&#xb0bc;" d="M804 271v-234h-504v-116h528v-60h-597v235h504v114h-509v61h578zM599 601h136v177h69v-453h-69v214h-136v-212h-68v439h68v-165zM145 735v-300q51 0 91.5 1.5t76 4t69 7t70.5 10.5l8 -61q-36 -6 -71 -10.5t-78.5 -7.5t-100 -4.5t-135.5 -1.5v362h70z" />
<glyph unicode="&#xb0c4;" d="M236 212h568v-346h-568v346zM304 -71h432v220h-432v-220zM599 567h136v211h69v-512h-69v238h-136v-236h-69v498h69v-199zM144 722v-320q51 0 91.5 1.5t76.5 4t69.5 7t70.5 10.5l8 -61q-36 -6 -71 -10.5t-78.5 -7.5t-100.5 -4.5t-136 -1.5v382h70z" />
<glyph unicode="&#xb0c5;" d="M804 260v-394h-569v394h69v-131h431v131h69zM599 585h136v193h69v-464h-69v208h-136v-206h-69v450h69v-181zM735 -71v138h-431v-138h431zM144 722v-307q51 0 91.5 1.5t76.5 4t69.5 7t70.5 10.5l8 -61q-36 -6 -71 -10.5t-78.5 -7.5t-100.5 -4.5t-136 -1.5v369h70z" />
<glyph unicode="&#xb0c7;" d="M600 561h136v217h69v-582h-69v302h-136v-212h-69v480h69v-205zM461 237h70v-81q0 -31 5.5 -53t18 -39.5t32.5 -31.5t49 -29q39 -20 91 -43t97 -41l-29 -57q-49 20 -98 43.5t-83 40.5q-100 50 -118 87q-18 -37 -118 -87q-34 -17 -83 -40.5t-98 -43.5l-30 57 q22 9 47.5 19.5t50 21.5t48 22t43.5 21q28 14 47.5 28t32.5 31.5t19 40t6 53.5v81zM145 717v-333q51 0 91.5 1.5t76.5 4t69.5 7t70.5 10.5l8 -61q-36 -6 -71 -10.5t-78.5 -7.5t-100.5 -4.5t-136 -1.5v395h70z" />
<glyph unicode="&#xb0c8;" d="M493 -138q-84 71 -121.5 110.5t-41.5 49.5q-6 -10 -21 -27t-50 -47q-19 -17 -45 -38t-61 -48l-39 50q64 48 102 81q28 24 44 42t24 35t10 35t2 42v90h69v-93q0 -23 1.5 -39.5t7.5 -31.5t19.5 -31.5t37.5 -40.5q12 -12 27.5 -26t34.5 -29q19 15 34.5 29t27.5 26 q24 24 37.5 40.5t19.5 31.5t7.5 31.5t1.5 39.5v93h69v-90q0 -24 2 -42t10 -35t24 -35t44 -42q37 -33 102 -81l-39 -50q-35 27 -61 48t-45 38q-35 30 -50 47t-21 27q-4 -10 -41.5 -49.5t-121.5 -110.5zM599 578h136v200h69v-498h-69v235h-136v-221h-69v472h69v-188zM144 722 v-321q51 0 91.5 1.5t76.5 4t69.5 7t70.5 10.5l8 -61q-36 -6 -71 -10.5t-78.5 -7.5t-100.5 -4.5t-136 -1.5v383h70z" />
<glyph unicode="&#xb0c9;" d="M526 214q56 0 107 -11.5t90 -33.5t62.5 -53t23.5 -71v-36q0 -40 -23.5 -71.5t-62.5 -53t-90 -33t-107 -11.5t-107 11.5t-90 33t-62.5 53t-23.5 71.5v37q0 40 23.5 71.5t62.5 53t90 32.5t107 11zM526 -100q40 0 78.5 7.5t69 22t49 35t18.5 47.5v30q0 27 -18.5 47.5t-49 35 t-69 22t-78.5 7.5t-78.5 -7.5t-69 -21.5t-49 -34.5t-18.5 -47.5v-31q0 -27 18.5 -47.5t49 -35t69 -22t78.5 -7.5zM599 567h136v211h69v-544h-69v270h-136v-231h-69v493h69v-199zM144 718v-341q51 0 91.5 1.5t76.5 4t69.5 7t70.5 10.5l8 -61q-36 -6 -71 -10.5t-78.5 -7.5 t-100.5 -4.5t-136 -1.5v403h70z" />
<glyph unicode="&#xb0d0;" d="M741 571h153v-63h-153v-193h153v-63h-153v-388h-70v914h70v-207zM167 179h116q69 0 146.5 5.5t155.5 19.5l8 -62q-80 -14 -164.5 -20.5t-163.5 -6.5h-169v588h71v-524z" />
<glyph unicode="&#xb0d1;" d="M149 728v-333q73 0 128 1t103.5 3.5t95.5 7t104 12.5l8 -63q-59 -8 -108 -13t-104 -7.5t-125.5 -3.5t-172.5 -1v397h71zM167 200h574v-343h-70v280h-504v63zM741 643h140v-62h-140v-123h140v-62h-140v-142h-69v524h69v-135z" />
<glyph unicode="&#xb0d4;" d="M741 607h140v-62h-140v-141h140v-62h-140v-218h-69v654h69v-171zM149 723v-359q73 0 128 1t103.5 3.5t95.5 7t104 12.5l8 -63q-59 -8 -108 -13t-104 -7.5t-125.5 -3.5t-172.5 -1v423h71zM264 -62h505v-63h-576v305h71v-242z" />
<glyph unicode="&#xb0d8;" d="M741 276v-237h-483v-118h507v-60h-576v237h483v117h-488v61h557zM149 743v-294q73 0 128 1t103.5 3.5t95.5 7t104 12.5l8 -63q-59 -8 -108 -13t-104 -7.5t-125.5 -3.5t-172.5 -1v358h71zM741 663h140v-62h-140v-99h140v-62h-140v-110h-69v448h69v-115z" />
<glyph unicode="&#xb0e0;" d="M191 219h550v-353h-550v353zM259 -71h414v227h-414v-227zM149 728v-315q73 0 128 1t103.5 3.5t95.5 7t104 12.5l8 -63q-59 -8 -108 -13t-104 -7.5t-125.5 -3.5t-172.5 -1v379h71zM741 643h140v-62h-140v-119h140v-62h-140v-127h-69v505h69v-135z" />
<glyph unicode="&#xb0e5;" d="M474 224q56 0 105.5 -12.5t86.5 -35t58.5 -54.5t21.5 -71v-38q0 -39 -21.5 -71t-58.5 -54.5t-86.5 -35t-105.5 -12.5t-105.5 12.5t-86.5 35t-58.5 54.5t-21.5 71v38q0 40 21.5 72t58.5 54.5t86.5 34.5t105.5 12zM474 -100q40 0 77 8.5t65 23.5t45 36.5t17 47.5v32 q0 26 -17 47.5t-45 36.5t-65 23.5t-77 8.5t-77 -8.5t-65 -23.5t-45 -36.5t-17 -47.5v-32q0 -26 17 -47.5t45 -36.5t65 -23.5t77 -8.5zM149 725v-333q73 0 128 1t103.5 3.5t95.5 7t104 12.5l8 -63q-59 -8 -108.5 -13t-105 -7.5t-126 -3.5t-170.5 -1v397h71zM741 642h140v-62 h-140v-122h140v-62h-140v-152h-69v534h69v-136z" />
<glyph unicode="&#xb108;" d="M783 -136h-71v570h-269v64h269v280h71v-914zM178 179h125q72 0 147.5 5.5t157.5 19.5l9 -63q-81 -14 -165 -20t-156 -6h-189v588h71v-524z" />
<glyph unicode="&#xb109;" d="M201 197h589v-340h-70v277h-519v63zM168 728v-337q73 0 128 1t103.5 3.5t95.5 7t104 12.5l8 -63q-59 -8 -108 -13t-104 -7.5t-125.5 -3.5t-172.5 -1v401h71zM720 615v163h70v-527h-70v301h-277v63h277z" />
<glyph unicode="&#xb10b;" d="M168 728v-326q73 0 128 1t103.5 3.5t95.5 7t104 12.5l8 -63q-59 -8 -108 -13t-104 -7.5t-125.5 -3.5t-172.5 -1v390h71zM720 615v163h70v-504h-70v278h-277v63h277zM685 1q-8 -15 -24.5 -33.5t-45.5 -45.5q-17 -16 -37 -34.5t-40 -35.5l-42 47q21 17 41 34.5t46 42.5 q21 20 33.5 35t20 30.5t10 34t2.5 47.5v93h69v-93q0 -29 2.5 -47.5t10 -34t20.5 -30.5t34 -35q26 -25 46 -42.5t41 -34.5l-42 -47q-20 17 -40 35.5t-37 34.5q-29 27 -44.5 45.5t-23.5 33.5zM172 212h300v-355h-69v294h-231v61z" />
<glyph unicode="&#xb10c;" d="M720 602v176h70v-654h-70v415h-277v63h277zM168 723v-364q73 0 128 1t103.5 3.5t95.5 7t104 12.5l8 -63q-59 -8 -108 -13t-104 -7.5t-125.5 -3.5t-172.5 -1v428h71zM300 -62h513v-63h-584v301h71v-238z" />
<glyph unicode="&#xb110;" d="M790 276v-237h-491v-118h515v-60h-584v237h491v117h-496v61h565zM168 743v-298q73 0 128 1t103.5 3.5t95.5 7t104 12.5l8 -63q-59 -8 -108 -13t-104 -7.5t-125.5 -3.5t-172.5 -1v362h71zM720 641v137h70v-448h-70v249h-277v62h277z" />
<glyph unicode="&#xb112;" d="M513 -139v413h277v-413h-277zM446 274v-235h-211v-118h56q19 0 42 1t47 2.5t46 3.5t39 4l5 -59q-38 -5 -89.5 -8.5t-102.5 -3.5h-109v236h211v117h-216v60h282zM168 743v-298q73 0 128 1t103.5 3.5t95.5 7t104 12.5l8 -63q-59 -8 -108 -13t-104 -7.5t-125.5 -3.5 t-172.5 -1v362h71zM720 641v137h70v-450h-70v251h-277v62h277zM579 215v-295h145v295h-145z" />
<glyph unicode="&#xb113;" d="M790 276v-415h-283v415h66v-149h151v149h66zM440 274v-235h-209v-118h54q19 0 42 1t47 2.5t46 3.5t39 4l5 -59q-38 -5 -89.5 -8.5t-102.5 -3.5h-107v236h209v117h-214v60h280zM168 743v-298q73 0 128 1t103.5 3.5t95.5 7t104 12.5l8 -63q-59 -8 -108 -13t-104 -7.5 t-125.5 -3.5t-172.5 -1v362h71zM720 641v137h70v-450h-70v251h-277v62h277zM724 -80v147h-151v-147h151z" />
<glyph unicode="&#xb118;" d="M230 215h560v-349h-560v349zM298 -71h424v223h-424v-223zM168 728v-321q73 0 128 1t103.5 3.5t95.5 7t104 12.5l8 -63q-59 -8 -108 -13t-104 -7.5t-125.5 -3.5t-172.5 -1v385h71zM720 620v158h70v-509h-70v288h-277v63h277z" />
<glyph unicode="&#xb119;" d="M790 258v-392h-559v392h69v-124h421v124h69zM721 -71v143h-421v-143h421zM168 728v-307q73 0 128 1t103.5 3.5t95.5 7t104 12.5l8 -63q-59 -8 -108 -13t-104 -7.5t-125.5 -3.5t-172.5 -1v371h71zM720 619v159h70v-466h-70v245h-277v62h277z" />
<glyph unicode="&#xb11b;" d="M720 608v170h70v-582h-70v349h-277v63h277zM467 236h70v-80q0 -31 5.5 -53t18 -39.5t32.5 -31.5t49 -29q39 -20 91 -43t97 -41l-29 -57q-49 20 -98 43.5t-83 40.5q-100 50 -118 87q-18 -37 -118 -87q-34 -17 -83 -40.5t-98 -43.5l-30 57q22 9 47.5 19.5t50 21.5t48 22 t43.5 21q28 14 47.5 28t32.5 31.5t19 40t6 53.5v80zM168 723v-331q73 0 128 1t103.5 3.5t95.5 7t104 12.5l8 -63q-59 -8 -108 -13t-104 -7.5t-125.5 -3.5t-172.5 -1v395h71z" />
<glyph unicode="&#xb11c;" d="M498 -138q-84 71 -121.5 110.5t-41.5 49.5q-6 -10 -21 -27t-50 -47q-19 -17 -45 -38t-61 -48l-39 50q64 48 102 81q28 24 44 42t24 35t10 35t2 42v87h69v-90q0 -23 1.5 -39.5t7.5 -31.5t19.5 -31.5t37.5 -40.5q12 -12 27.5 -26t34.5 -29q19 15 34.5 29t27.5 26 q24 24 37.5 40.5t19.5 31.5t7.5 31.5t1.5 39.5v90h69v-87q0 -24 2 -42t10 -35t24 -35t44 -42q37 -33 102 -81l-39 -50q-35 27 -61 48t-45 38q-35 30 -50 47t-21 27q-4 -10 -41.5 -49.5t-121.5 -110.5zM168 728v-321q73 0 128 1t103.5 3.5t95.5 7t104 12.5l8 -63 q-59 -8 -108 -13t-104 -7.5t-125.5 -3.5t-172.5 -1v385h71zM720 621v157h70v-498h-70v278h-277v63h277z" />
<glyph unicode="&#xb11d;" d="M518 220q56 0 106.5 -12t88.5 -34t60 -53.5t22 -70.5v-39q0 -39 -22 -71t-60 -54t-88.5 -34t-106.5 -12t-106.5 12t-88.5 34t-60 54t-22 71v39q0 40 22 72t60 53.5t88.5 33t106.5 11.5zM518 -100q40 0 77.5 7.5t67 22t47 35.5t17.5 48v34q0 27 -17.5 48t-47 35.5t-67 22 t-77.5 7.5t-77.5 -7.5t-67 -22t-47 -35.5t-17.5 -48v-34q0 -27 17.5 -48t47 -35.5t67 -22t77.5 -7.5zM168 725v-340q73 0 128 1t103.5 3.5t95.5 7t104 12.5l8 -63q-59 -8 -108 -13t-104 -7.5t-125.5 -3.5t-172.5 -1v404h71zM720 607v171h70v-538h-70v304h-277v63h277z" />
<glyph unicode="&#xb123;" d="M511 120q49 0 93 -8.5t77 -25t52 -41t19 -55.5v-22q0 -31 -19 -55.5t-52 -41t-77 -25t-93 -8.5t-93 8.5t-77 25t-52 41t-19 55.5v22q0 31 19 55.5t52 41t77 25t93 8.5zM168 743v-296q73 0 128 1t103.5 3.5t95.5 7t104 12.5l8 -63q-59 -8 -108 -13t-104 -7.5t-125.5 -3.5 t-172.5 -1v360h71zM790 311h-70v267h-277v63h277v137h70v-467zM511 -106q37 0 68.5 5.5t54.5 15.5t36 24t13 31v18q0 17 -13 31t-36 24t-54.5 15.5t-68.5 5.5t-68.5 -5.5t-54.5 -15.5t-36 -24t-13 -31v-18q0 -17 13 -31t36 -24t54.5 -15.5t68.5 -5.5zM476 227v89h70v-89h269 v-59h-610v59h271z" />
<glyph unicode="&#xb124;" d="M552 480v279h70v-850h-70v507h-209v64h209zM816 -136h-70v914h70v-914zM85 692h71v-507h73q50 0 112 4t129 16l8 -63q-69 -14 -144 -17.5t-139 -3.5h-110v571z" />
<glyph unicode="&#xb125;" d="M209 194h595v-337h-70v275h-525v62zM558 593v173h69v-515h-69v279h-213v63h213zM144 722v-346q54 0 95.5 1t77 3t68 5.5t69.5 8.5l8 -61q-36 -5 -69 -9t-75 -6t-100 -3t-144 -1v408h70zM804 249h-69v529h69v-529z" />
<glyph unicode="&#xb128;" d="M558 572v194h69v-614h-69v357h-213v63h213zM293 -63h531v-62h-602v301h71v-239zM144 717v-367q54 0 95.5 1t77 3t68 5.5t69.5 8.5l8 -61q-36 -5 -69 -9t-75 -6t-100 -3t-144 -1v429h70zM804 130h-69v648h69v-648z" />
<glyph unicode="&#xb12c;" d="M804 271v-234h-504v-116h528v-60h-597v235h504v114h-509v61h578zM145 735v-308q54 0 95.5 1t77 3t68 5.5t69.5 8.5l8 -61q-36 -5 -69 -9t-75 -6t-100 -3t-144 -1v370h70zM558 611v155h69v-439h-69v222h-213v62h213zM804 325h-69v453h69v-453z" />
<glyph unicode="&#xb134;" d="M236 212h568v-346h-568v346zM304 -71h432v220h-432v-220zM558 590v176h69v-498h-69v259h-213v63h213zM144 722v-336q54 0 95.5 1t77 3t68 5.5t69.5 8.5l8 -61q-36 -5 -69 -9t-75 -6t-100 -3t-144 -1v398h70zM804 266h-69v512h69v-512z" />
<glyph unicode="&#xb135;" d="M804 260v-394h-569v394h69v-131h431v131h69zM735 -71v138h-431v-138h431zM144 722v-322q54 0 95.5 1t77 3t68 5.5t69.5 8.5l8 -61q-36 -5 -69 -9t-75 -6t-100 -3t-144 -1v384h70zM558 595v171h69v-450h-69v217h-213v62h213zM804 314h-69v464h69v-464z" />
<glyph unicode="&#xb137;" d="M461 237h70v-81q0 -31 5.5 -53t18 -39.5t32.5 -31.5t49 -29q39 -20 91 -43t97 -41l-29 -57q-49 20 -98 43.5t-83 40.5q-100 50 -118 87q-18 -37 -118 -87q-34 -17 -83 -40.5t-98 -43.5l-30 57q22 9 47.5 19.5t50 21.5t48 22t43.5 21q28 14 47.5 28t32.5 31.5t19 40 t6 53.5v81zM145 717v-343q54 0 95.5 1t77 3t68 5.5t69.5 8.5l8 -61q-36 -5 -69 -9t-75 -6t-100 -3t-144 -1v405h70zM559 572v194h69v-480h-69v223h-213v63h213zM805 196h-69v582h69v-582z" />
<glyph unicode="&#xb138;" d="M493 -138q-84 71 -121.5 110.5t-41.5 49.5q-6 -10 -21 -27t-50 -47q-19 -17 -45 -38t-61 -48l-39 50q64 48 102 81q28 24 44 42t24 35t10 35t2 42v87h69v-90q0 -23 1.5 -39.5t7.5 -31.5t19.5 -31.5t37.5 -40.5q12 -12 27.5 -26t34.5 -29q19 15 34.5 29t27.5 26 q24 24 37.5 40.5t19.5 31.5t7.5 31.5t1.5 39.5v90h69v-87q0 -24 2 -42t10 -35t24 -35t44 -42q37 -33 102 -81l-39 -50q-35 27 -61 48t-45 38q-35 30 -50 47t-21 27q-4 -10 -41.5 -49.5t-121.5 -110.5zM144 722v-340q54 0 95.5 1t77 3t68 5.5t69.5 8.5l8 -61q-36 -5 -69 -9 t-75 -6t-100 -3t-144 -1v402h70zM558 591v175h69v-470h-69v232h-213v63h213zM804 282h-69v496h69v-496z" />
<glyph unicode="&#xb139;" d="M525 214q56 0 107 -11.5t90 -33.5t62.5 -53t23.5 -71v-36q0 -40 -23.5 -71.5t-62.5 -53t-90 -33t-107 -11.5t-107 11.5t-90 33t-62.5 53t-23.5 71.5v37q0 40 23.5 71.5t62.5 53t90 32.5t107 11zM525 -100q40 0 78.5 7.5t69 22t49 35t18.5 47.5v30q0 27 -18.5 47.5t-49 35 t-69 22t-78.5 7.5t-78.5 -7.5t-69 -21.5t-49 -34.5t-18.5 -47.5v-31q0 -27 18.5 -47.5t49 -35t69 -22t78.5 -7.5zM144 718v-349q54 0 95.5 1t77 3t68 5.5t69.5 8.5l8 -61q-36 -5 -69 -9t-75 -6t-100 -3t-144 -1v411h70zM558 584v182h69v-494h-69v249h-213v63h213zM804 234 h-69v544h69v-544z" />
<glyph unicode="&#xb140;" d="M716 598v180h70v-914h-70v470h-265v63h265v138h-265v63h265zM181 177h125q42 0 80 1t74 3.5t73 7t78 10.5l8 -63q-85 -14 -167.5 -18.5t-161.5 -4.5h-180v591h71v-527z" />
<glyph unicode="&#xb141;" d="M722 674v104h69v-537h-69v218h-276v61h276v93h-276v61h276zM169 730v-373q73 0 128 1t103.5 3.5t95.5 7t104 12.5l8 -63q-59 -8 -108 -13t-104 -7.5t-125.5 -3.5t-172.5 -1v437h71zM202 187h589v-330h-69v267h-520v63z" />
<glyph unicode="&#xb144;" d="M722 664v114h69v-654h-69v313h-276v61h276v105h-276v61h276zM167 725v-396q73 0 128 1t103.5 3.5t95.5 7t104 12.5l8 -63q-59 -8 -108 -13t-104 -7.5t-125.5 -3.5t-172.5 -1v460h71zM301 -63h513v-62h-584v286h71v-224z" />
<glyph unicode="&#xb148;" d="M791 262v-230h-491v-111h515v-60h-584v230h491v110h-496v61h565zM722 706v72h69v-462h-69v184h-276v61h276v84h-276v61h276zM169 745v-333q73 0 128 1t103.5 3.5t95.5 6.5t104 11l8 -62q-60 -7 -108.5 -11.5t-103.5 -7t-125.5 -3.5t-172.5 -1v396h71z" />
<glyph unicode="&#xb150;" d="M231 207h560v-341h-560v341zM299 -71h424v215h-424v-215zM722 685v93h69v-517h-69v218h-276v61h276v84h-276v61h276zM169 730v-357q73 0 128 1t103.5 3.5t95.5 7t104 12.5l8 -63q-59 -8 -108 -13t-104 -7.5t-125.5 -3.5t-172.5 -1v421h71z" />
<glyph unicode="&#xb151;" d="M791 243v-377h-559v377h69v-114h421v114h69zM721 689v89h70v-481h-70v186h-275v61h275v84h-275v61h275zM722 -71v138h-421v-138h421zM169 730v-344q73 0 128 1t103.5 3.5t95.5 7t104 12.5l8 -63q-59 -8 -108 -13t-104 -7.5t-125.5 -3.5t-172.5 -1v408h71z" />
<glyph unicode="&#xb154;" d="M499 -138q-19 15 -45.5 37t-44.5 38q-27 24 -45.5 41t-26.5 31q-4 -7 -15 -18.5t-32 -29t-53.5 -42.5t-78.5 -58l-38 51q13 9 29 20.5l32 23t30 22.5t24 19q25 20 38.5 35t20 29.5t7.5 29.5t1 35v96h69v-96q0 -27 3 -44t10.5 -31t21.5 -27t35 -32q11 -10 27.5 -23.5 t30.5 -23.5q14 10 30.5 23.5t27.5 23.5q21 19 35 32t21.5 27t10.5 31t3 44v96h69v-96q0 -20 1 -35t7.5 -29.5t20 -29.5t38.5 -35q10 -8 24 -19t30 -22.5l32 -23t29 -20.5l-38 -51q-46 33 -78.5 58t-53.5 42.5t-32 29t-15 18.5q-8 -14 -26.5 -31t-45.5 -41q-18 -16 -44.5 -38 t-45.5 -37zM791 281h-69v196h-276v61h276v85h-276v61h276v94h69v-497zM169 730v-355q73 0 128 1t103.5 3.5t95.5 7t104 12.5l8 -63q-59 -8 -108 -13t-104 -7.5t-125.5 -3.5t-172.5 -1v419h71z" />
<glyph unicode="&#xb155;" d="M519 214q56 0 106.5 -11.5t88.5 -33t60 -53t22 -70.5v-38q0 -39 -22 -70.5t-60 -53t-88.5 -33t-106.5 -11.5t-106.5 11.5t-88.5 33t-60 53t-22 70.5v38q0 40 22 71.5t60 53t88.5 32.5t106.5 11zM519 -100q40 0 77.5 7.5t67 22t47 35t17.5 47.5v30q0 27 -17.5 47.5t-47 35 t-67 22t-77.5 7.5t-77.5 -7.5t-67 -22t-47 -35t-17.5 -47.5v-30q0 -27 17.5 -47.5t47 -35t67 -22t77.5 -7.5zM722 669v109h69v-544h-69v227h-276v61h276v86h-276v61h276zM169 727v-372q73 0 128 1t103.5 3.5t95.5 7t104 12.5l8 -63q-59 -8 -108 -13t-104 -7.5t-125.5 -3.5 t-172.5 -1v436h71z" />
<glyph unicode="&#xb158;" d="M721 61v84h-514v62h584v-351h-70v146l-517 -9l-2 62zM722 685v93h69v-517h-69v215h-276v61h276v87h-276v61h276zM169 730v-360q73 0 128 1t103.5 3.5t95.5 7t104 12.5l8 -62q-59 -8 -108 -13t-104 -7.5t-125.5 -3.5t-172.5 -1v423h71z" />
<glyph unicode="&#xb15c;" d="M553 572v187h70v-850h-70v411h-206v62h206v128h-206v62h206zM816 -136h-70v914h70v-914zM85 694h71v-517h73q50 0 112 4t129 16l8 -63q-69 -14 -144 -17.5t-139 -3.5h-110v581z" />
<glyph unicode="&#xb160;" d="M560 651v115h68v-615h-68v288h-207v61h207v90h-207v61h207zM293 -63h531v-62h-602v299h71v-237zM144 717v-387q54 0 95.5 1t77 3t68 5.5t69.5 8.5l8 -61q-36 -5 -69 -9t-75 -6t-100 -3t-144 -1v449h70zM804 129h-69v649h69v-649z" />
<glyph unicode="&#xb178;" d="M224 704v-346h542v-61h-276v-243h385v-61h-840v61h385v243h-267v407h71z" />
<glyph unicode="&#xb179;" d="M420 321v125h-257v304h71v-243h522v-61h-266v-125h385v-60h-840v60h385zM142 151h612v-294h-70v233h-542v61z" />
<glyph unicode="&#xb17c;" d="M420 292v142h-257v311h71v-250h522v-61h-266v-142h385v-60h-840v60h385zM230 -63h539v-62h-610v271h71v-209z" />
<glyph unicode="&#xb180;" d="M750 232v-214h-521v-99h548v-59h-617v216h521v97h-526v59h595zM234 551h522v-62h-266v-108h385v-60h-840v60h385v108h-257v269h71v-207z" />
<glyph unicode="&#xb182;" d="M234 551h522v-62h-266v-108h385v-60h-840v60h385v108h-257v269h71v-207zM487 -140v371h281v-371h-281zM420 231v-213h-213v-99h58q19 0 42 1t47 2.5t46 3.5t39 4l5 -58q-38 -5 -89.5 -8.5t-102.5 -3.5h-111v215h213v97h-218v59h284zM553 172v-253h149v253h-149z" />
<glyph unicode="&#xb188;" d="M158 176h594v-310h-594v310zM420 340v120h-257v290h71v-229h522v-61h-266v-120h385v-60h-840v60h385zM226 -71h458v184h-458v-184z" />
<glyph unicode="&#xb189;" d="M753 218v-352h-596v352h69v-113h458v113h69zM234 529h522v-61h-266v-120h385v-60h-840v60h385v120h-257v287h71v-226zM684 -71v114h-458v-114h458z" />
<glyph unicode="&#xb18b;" d="M420 322v133h-257v295h71v-234h522v-61h-266v-133h385v-60h-840v60h385zM455 30q-8 -17 -33 -33.5t-51 -30.5q-63 -32 -122 -57.5t-113 -46.5l-29 55q62 23 116 46t102 47q27 14 45.5 25.5t29.5 26.5t15.5 36t4.5 53v55h70v-55q0 -32 4.5 -53t15.5 -36t29.5 -26.5 t45.5 -25.5q48 -24 102 -47t116 -46l-29 -55q-54 21 -113 46.5t-122 57.5q-26 14 -51 30.5t-33 33.5z" />
<glyph unicode="&#xb18d;" d="M455 194q56 0 107.5 -10t90.5 -30.5t62.5 -50.5t23.5 -69v-34q0 -39 -23.5 -69t-62.5 -50.5t-90.5 -30.5t-107.5 -10t-107.5 10t-90.5 30.5t-62.5 50.5t-23.5 69v34q0 40 23.5 70t62.5 50t90.5 30t107.5 10zM234 750v-236h522v-61h-267v-126h386v-60h-840v60h384v126 h-256v297h71zM455 -100q40 0 79 7t69.5 20t49 32.5t18.5 44.5v26q0 25 -18.5 44.5t-49 32.5t-69.5 20t-79 7q-41 0 -79.5 -7t-69 -20t-49 -32.5t-18.5 -44.5v-26q0 -25 18.5 -44.5t49 -32.5t69 -20t79.5 -7z" />
<glyph unicode="&#xb192;" d="M144 181h622v-60h-127v-195h131v-60h-629v60h130v195h-127v60zM234 528h522v-61h-266v-120h385v-60h-840v60h385v120h-257v288h71v-227zM340 -74h230v195h-230v-195z" />
<glyph unicode="&#xb193;" d="M234 561h522v-61h-266v-108h385v-60h-840v60h385v108h-257v259h71v-198zM455 97q53 0 98 -8t78 -23t51.5 -37.5t18.5 -51.5v-20q0 -29 -18.5 -51.5t-51.5 -37.5t-78 -23t-98 -8t-98 8t-78 23t-51.5 37.5t-18.5 51.5v20q0 29 18.5 51.5t51.5 37.5t78 23t98 8zM420 206v79 h70v-79h284v-59h-650v59h296zM455 -107q37 0 69 4.5t56 13t38 21t14 28.5v14q0 16 -14 28.5t-38 21t-56 13t-69 4.5t-69 -4.5t-56 -13t-38 -21t-14 -28.5v-14q0 -16 14 -28.5t38 -21t56 -13t69 -4.5z" />
<glyph unicode="&#xb194;" d="M547 344h-188v-212q76 3 138.5 7.5t125.5 11.5l6 -62q-62 -6 -118.5 -10.5t-122.5 -7.5t-149 -4t-198 -1v63h133.5t113.5 2v213h-186v360h71v-296h374v-64zM764 419h145v-63h-145v-492h-71v914h71v-359z" />
<glyph unicode="&#xb198;" d="M623 252q-46 -6 -101 -10t-125.5 -7t-159.5 -4.5t-203 -1.5v62h136t114 1v145h-183v301h70v-239h374v-62h-191v-143q84 2 145.5 6.5t117.5 10.5zM757 485h137v-63h-137v-328h-70v684h70v-293zM263 -63h519v-62h-590v257h71v-195z" />
<glyph unicode="&#xb19c;" d="M757 231v-214h-514v-98h541v-59h-610v215h514v97h-519v59h588zM623 342q-46 -6 -101 -10t-125.5 -7t-159.5 -4.5t-203 -1.5v61h136.5t114.5 1v112h-184v255h70v-193h374v-62h-190v-110q83 2 144.5 6.5t117.5 10.5zM757 575h137v-62h-137v-228h-70v493h70v-203z" />
<glyph unicode="&#xb1a8;" d="M623 299q-46 -6 -101 -10t-125.5 -7t-159.5 -4.5t-203 -1.5v62h136t114 1v127h-183v277h70v-215h374v-62h-191v-125q84 2 145.5 6.5t117.5 10.5zM478 -138q-32 28 -57.5 50.5t-44.5 40.5q-29 29 -44 46t-17 23q-6 -10 -21 -27t-50 -47q-19 -17 -45 -38t-61 -48l-39 50 q64 48 102 81q28 24 44 42t24 35t10 35t2 42v58h69v-61q0 -23 1.5 -39.5t7.5 -31.5t19.5 -31.5t37.5 -40.5q12 -12 27.5 -26t34.5 -29q19 15 34.5 29t27.5 26q24 24 37.5 40.5t19.5 31.5t7.5 31.5t1.5 39.5v61h69v-58q0 -24 2 -42t10 -35t24 -35t44 -42q37 -33 102 -81 l-39 -50q-35 27 -61 48t-45 38q-35 30 -50 47t-21 27q-2 -6 -17 -23t-44 -46q-19 -18 -44.5 -40.5t-57.5 -50.5zM757 558h137v-63h-137v-241h-70v524h70v-220z" />
<glyph unicode="&#xb1cc;" d="M670 89q-61 -7 -121 -11.5t-130 -7t-156.5 -3.5t-201.5 -1v63h136.5t118.5 2v213h-191v360h71v-296h381v-64h-190v-212q81 3 147 7t130 12zM805 -136h-71v914h71v-914z" />
<glyph unicode="&#xb1d0;" d="M658 251q-46 -6 -101 -10.5t-126.5 -7.5t-162.5 -4.5t-209 -1.5v62h137t115 2v144h-185v303h70v-240h376v-63h-191v-142q88 2 151 7t120 11zM279 -63h536v-62h-607v259h71v-197zM792 94h-70v684h70v-684z" />
<glyph unicode="&#xb1d4;" d="M792 231v-215h-514v-96h541v-60h-610v215h514v96h-519v60h588zM658 343q-45 -6 -100.5 -10.5t-127 -7.5t-162.5 -4.5t-209 -1.5v61h137t115 2v111h-185v255h70v-193h376v-62h-191v-109q88 2 151 7t120 11zM792 285h-70v493h70v-493z" />
<glyph unicode="&#xb1dc;" d="M209 185h583v-319h-583v319zM658 306q-46 -6 -101 -10.5t-126.5 -7.5t-162.5 -4.5t-209 -1.5v62h137t115 2v118h-185v279h70v-216h376v-63h-191v-116q88 2 151 7t120 11zM277 -71h447v193h-447v-193zM792 239h-70v539h70v-539z" />
<glyph unicode="&#xb1dd;" d="M792 210v-344h-582v344h69v-109h444v109h69zM658 309q-46 -6 -101 -10.5t-126.5 -7.5t-162.5 -4.5t-209 -1.5v62h137t115 2v120h-185v274h70v-211h376v-63h-191v-118q88 2 151 7t120 11zM723 -71v110h-444v-110h444zM792 264h-70v514h70v-514z" />
<glyph unicode="&#xb1df;" d="M658 294q-46 -6 -101 -10.5t-126.5 -7.5t-162.5 -4.5t-209 -1.5v62h137t115 2v123h-185v286h70v-223h376v-63h-191v-121q88 2 151 7t120 11zM458 214h70v-58q0 -31 5.5 -53.5t18 -39.5t32.5 -31.5t49 -29.5q39 -20 91 -42.5t97 -40.5l-29 -57q-49 20 -98 43t-83 40 q-101 51 -117 88q-18 -38 -119 -88q-34 -17 -83 -40t-98 -43l-30 57q22 9 47.5 19.5t50 21t48 21.5t43.5 21q29 15 49 29.5t32.5 32t18 39.5t5.5 53v58zM792 171h-70v607h70v-607z" />
<glyph unicode="&#xb1e8;" d="M223 704v-343h542v-61h-138v-246h248v-61h-840v61h248v246h-131v404h71zM353 54h204v246h-204v-246z" />
<glyph unicode="&#xb1e9;" d="M280 311v136h-118v303h70v-242h524v-61h-126v-136h245v-60h-840v60h245zM142 148h612v-291h-70v230h-542v61zM349 311h212v136h-212v-136z" />
<glyph unicode="&#xb1ec;" d="M280 282v153h-118v310h70v-249h524v-61h-126v-153h245v-60h-840v60h245zM230 -63h539v-62h-610v265h71v-203zM349 282h212v153h-212v-153z" />
<glyph unicode="&#xb1f0;" d="M232 552h524v-62h-126v-120h245v-60h-840v60h245v120h-118v268h70v-206zM750 226v-211h-521v-96h548v-59h-617v213h521v94h-526v59h595zM349 370h212v120h-212v-120z" />
<glyph unicode="&#xb1f9;" d="M753 214v-348h-596v348h69v-110h458v110h69zM232 531h524v-61h-126v-128h245v-60h-840v60h245v128h-118v285h70v-224zM684 -71v113h-458v-113h458zM349 342h212v128h-212v-128z" />
<glyph unicode="&#xb1fb;" d="M280 314v143h-118v293h70v-232h524v-61h-126v-143h245v-60h-840v60h245zM455 30q-8 -17 -33 -33.5t-51 -30.5q-63 -32 -122 -57.5t-113 -46.5l-29 55q62 23 116 46t102 47q27 14 45.5 25.5t29.5 26.5t15.5 36t4.5 53v50h70v-50q0 -32 4.5 -53t15.5 -36t29.5 -26.5 t45.5 -25.5q48 -24 102 -47t116 -46l-29 -55q-54 21 -113 46.5t-122 57.5q-26 14 -51 30.5t-33 33.5zM349 314h212v143h-212v-143z" />
<glyph unicode="&#xb1fd;" d="M455 190q56 0 107.5 -10.5t90.5 -30.5t62.5 -50.5t23.5 -69.5v-28q0 -39 -23.5 -69t-62.5 -50.5t-90.5 -31t-107.5 -10.5t-107.5 10.5t-90.5 31t-62.5 50.5t-23.5 69v29q0 39 23.5 69t62.5 50.5t90.5 30.5t107.5 10zM232 750v-235h524v-61h-126v-134h245v-60h-840v60h245 v134h-118v296h70zM455 -100q40 0 79 6.5t69.5 19.5t49 32.5t18.5 46.5v20q0 27 -18.5 46.5t-49 32.5t-69.5 19.5t-79 6.5t-79 -6.5t-69.5 -19.5t-49 -32.5t-18.5 -45.5v-21q0 -27 18.5 -46.5t49 -32.5t69.5 -19.5t79 -6.5zM349 320h212v134h-212v-134z" />
<glyph unicode="&#xb204;" d="M875 256v-61h-384v-331h-71v331h-385v61h840zM230 458h528v-62h-600v352h72v-290z" />
<glyph unicode="&#xb205;" d="M142 153h278v131h-385v60h840v-60h-385v-131h264v-296h-70v235h-542v61zM234 512h522v-61h-593v299h71v-238z" />
<glyph unicode="&#xb208;" d="M875 322v-60h-375v-199h-70v199h-395v60h840zM234 501h522v-61h-593v305h71v-244zM230 -63h539v-62h-610v278h71v-216z" />
<glyph unicode="&#xb20b;" d="M875 366v-60h-385v-129h265v-61h-529v-189h546v-61h-615v311h263v129h-385v60h840zM234 534h522v-61h-593v277h71v-216z" />
<glyph unicode="&#xb20c;" d="M420 232v106h-385v60h840v-60h-385v-106h260v-214h-521v-99h548v-59h-617v216h521v97h-526v59h265zM234 553h522v-62h-593v267h71v-205z" />
<glyph unicode="&#xb214;" d="M158 180h262v127h-385v60h840v-60h-385v-127h262v-314h-594v314zM226 -71h458v189h-458v-189zM234 534h522v-61h-593v277h71v-216z" />
<glyph unicode="&#xb215;" d="M753 211v-345h-596v345h69v-111h458v111h69zM875 374v-60h-385v-135h-70v135h-385v60h840zM234 539h522v-61h-593v277h71v-216zM684 -71v109h-458v-109h458z" />
<glyph unicode="&#xb217;" d="M875 361v-60h-385v-102h-70v102h-385v60h840zM234 522h522v-61h-593v292h71v-231zM455 30q-8 -17 -33 -33.5t-51 -30.5q-63 -32 -122 -57.5t-113 -46.5l-29 55q62 23 116 46t102 47q27 14 45.5 25.5t29.5 26.5t15.5 36t4.5 53v15h70v-15q0 -32 4.5 -53t15.5 -36 t29.5 -26.5t45.5 -25.5q48 -24 102 -47t116 -46l-29 -55q-54 21 -113 46.5t-122 57.5q-26 14 -51 30.5t-33 33.5z" />
<glyph unicode="&#xb219;" d="M875 353v-60h-385v-103q51 -3 96 -14.5t79 -31.5t54 -48.5t20 -64.5v-30q0 -39 -23.5 -69t-62.5 -50.5t-90.5 -31t-107.5 -10.5t-107.5 10.5t-90.5 31t-62.5 50.5t-23.5 69v31q0 36 20 64.5t53.5 48t79 31t96.5 14.5v103h-385v60h840zM455 -100q40 0 79 6.5t69.5 20 t49 33t18.5 46.5v20q0 27 -18.5 46.5t-49 33t-69.5 20t-79 6.5t-79 -6.5t-69.5 -20t-49 -33t-18.5 -45.5v-21q0 -27 18.5 -46.5t49 -33t69.5 -20t79 -6.5zM234 750v-230h522v-61h-593v291h71z" />
<glyph unicode="&#xb220;" d="M730 134v644h71v-914h-71v207h-220v63h220zM666 256q-70 -7 -138.5 -11.5t-153.5 -7.5v-344h-72v342q-53 -1 -114 -1.5t-133 -0.5v62q108 0 197.5 1.5t163 4t134 6.5t110.5 10zM575 420h-455v319h71v-255h384v-64z" />
<glyph unicode="&#xb234;" d="M490 -140q-19 15 -45.5 37t-44.5 38q-27 24 -45.5 41t-26.5 31q-4 -7 -15 -18.5t-32 -29t-53.5 -42.5t-78.5 -58l-38 51q13 9 29 20.5l32 23t30 22.5t24 19q25 20 38.5 35t20 29.5t7.5 29.5t1 35v48h69v-48q0 -27 3 -44t10.5 -31t21.5 -27t35 -32q11 -10 27.5 -23.5 t30.5 -23.5q14 10 30.5 23.5t27.5 23.5q21 19 35 32t21.5 27t10.5 31t3 44v48h69v-48q0 -20 1 -35t7.5 -29.5t20 -29.5t38.5 -35q10 -8 24 -19t30 -22.5l32 -23t29 -20.5l-38 -51q-46 33 -78.5 58t-53.5 42.5t-32 29t-15 18.5q-8 -14 -26.5 -31t-45.5 -41q-18 -16 -44.5 -38 t-45.5 -37zM722 307v471h70v-567h-70v36h-206v60h206zM653 377q-36 -4 -70.5 -7t-70 -5.5t-73 -4.5t-80.5 -3v-137h-71v136q-51 -1 -108.5 -1.5t-127.5 -0.5v61q108 0 193 1t155 3.5t129.5 7t117.5 10.5zM554 502h-426v248h71v-185h355v-63z" />
<glyph unicode="&#xb23c;" d="M586 169v593h70v-873h-70v217h-169v63h169zM826 -136h-70v914h70v-914zM525 271q-53 -5 -102.5 -7.5t-111.5 -4.5v-336h-71v334q-43 -1 -93 -1h-113v62q89 0 156.5 1t123 2.5t104.5 4.5t103 6zM472 431h-377v297h70v-233h307v-64z" />
<glyph unicode="&#xb258;" d="M801 -136h-71v914h71v-914zM666 244q-68 -7 -135 -11t-149 -7v-333h-72v330q-54 -1 -117 -1.5t-138 -0.5v62q108 0 197.5 1.5t163 4t134 6.5t110.5 10zM578 420h-460v319h71v-255h389v-64z" />
<glyph unicode="&#xb25c;" d="M278 -63h535v-62h-606v243h71v-181zM792 68h-70v710h70v-710zM652 310q-66 -7 -132.5 -11.5t-150.5 -6.5v-145h-71v143q-52 -2 -112.5 -2h-133.5v62q108 0 190 1t150.5 3.5t128.5 6.5t125 11zM573 457h-444v286h70v-223h374v-63z" />
<glyph unicode="&#xb260;" d="M792 209v-203h-515v-87h542v-59h-611v204h515v86h-520v59h589zM652 375q-65 -7 -131.5 -11t-150.5 -5v-107h-71v106q-53 -1 -113.5 -1h-133.5v62q108 0 190.5 0.5t150.5 2.5t128.5 5.5t125.5 9.5zM573 509h-444v245h70v-182h374v-63zM792 252h-70v526h70v-526z" />
<glyph unicode="&#xb268;" d="M209 171h583v-305h-583v305zM277 -71h447v179h-447v-179zM652 356q-66 -7 -132 -11.5t-150 -6.5v-118h-71v116q-53 -2 -113.5 -2h-133.5v61q108 0 190 1t150.5 3.5t128.5 6.5t125 11zM573 494h-444v255h70v-192h374v-63zM792 220h-70v558h70v-558z" />
<glyph unicode="&#xb269;" d="M792 187v-321h-582v321h69v-98h444v98h69zM652 360q-66 -7 -132 -11.5t-150 -6.5v-121h-71v119q-53 -2 -113.5 -2h-133.5v61q108 0 190 1t150.5 3.5t128.5 6.5t125 11zM723 -71v98h-444v-98h444zM573 497h-444v253h70v-190h374v-63zM792 231h-70v547h70v-547z" />
<glyph unicode="&#xb274;" d="M875 257v-61h-224v-331h-71v331h-250v-331h-71v331h-224v61h840zM230 458h528v-62h-600v352h72v-290z" />
<glyph unicode="&#xb275;" d="M142 151h136v140h-243v60h840v-60h-243v-140h122v-294h-70v233h-542v61zM234 514h522v-61h-593v297h71v-236zM347 151h216v140h-216v-140z" />
<glyph unicode="&#xb27c;" d="M875 405v-60h-240v-115h115v-214h-521v-97h548v-59h-617v214h522v97h-527v59h120v115h-240v60h840zM234 555h522v-62h-593v265h71v-203zM344 230h222v115h-222v-115z" />
<glyph unicode="&#xb284;" d="M158 178h117v135h-240v60h840v-60h-240v-135h117v-312h-594v312zM226 -71h458v187h-458v-187zM234 535h522v-61h-593v276h71v-215zM344 178h222v135h-222v-135z" />
<glyph unicode="&#xb285;" d="M753 210v-345h-596v345h69v-112h458v112h69zM875 379v-60h-263v-140h-69v140h-176v-140h-69v140h-263v60h840zM234 540h522v-61h-593v276h71v-215zM684 -72v108h-458v-108h458z" />
<glyph unicode="&#xb289;" d="M875 355v-60h-228v-144q42 -20 67 -50.5t25 -71.5v-28q0 -39 -23.5 -69t-62.5 -50.5t-90.5 -31t-107.5 -10.5t-107.5 10.5t-90.5 31t-62.5 50.5t-23.5 69v29q0 42 25 72t67 50v143h-228v60h840zM455 -100q40 0 79 6.5t69.5 19.5t49 32.5t18.5 46.5v20q0 27 -18.5 46.5 t-49 32.5t-69.5 19.5t-79 6.5t-79 -6.5t-69.5 -19.5t-49 -32.5t-18.5 -45.5v-21q0 -27 18.5 -46.5t49 -32.5t69.5 -19.5t79 -6.5zM234 750v-228h522v-61h-593v289h71zM455 189q64 0 123 -14v120h-246v-120q59 14 123 14z" />
<glyph unicode="&#xb290;" d="M875 54v-61h-840v61h840zM225 700v-355h542v-61h-613v416h71z" />
<glyph unicode="&#xb291;" d="M234 506h522v-61h-593v303h71v-242zM142 156h612v-299h-70v238h-542v61zM875 332v-61h-840v61h840z" />
<glyph unicode="&#xb294;" d="M875 305v-61h-840v61h840zM230 -63h539v-62h-610v273h71v-211zM234 494h522v-62h-593v311h71v-249z" />
<glyph unicode="&#xb298;" d="M875 392v-60h-840v60h840zM750 237v-218h-521v-99h548v-60h-617v218h521v99h-526v60h595zM234 550h522v-62h-593v268h71v-206z" />
<glyph unicode="&#xb299;" d="M875 391v-60h-840v60h840zM234 550h522v-62h-593v268h71v-206zM429 234v-215h-222v-100h112q19 0 43 1t49 2.5t47.5 3.5t39.5 4l5 -58q-38 -5 -90.5 -8.5t-101.5 -3.5h-170v216h222v99h-227v59h293zM764 234v-384h-69v323h-216v61h285z" />
<glyph unicode="&#xb29a;" d="M488 -140v376h280v-376h-280zM554 177v-258h148v258h-148zM421 236v-215h-214v-101h59q19 0 42 1t47 2.5t46 3.5t39 4l5 -59q-38 -5 -89.5 -8.5t-102.5 -3.5h-112v219h214v97h-219v60h285zM875 392v-60h-840v60h840zM234 550h522v-62h-593v268h71v-206z" />
<glyph unicode="&#xb2a0;" d="M234 520h522v-61h-593v289h71v-228zM158 181h594v-315h-594v315zM226 -71h458v189h-458v-189zM875 351v-61h-840v61h840z" />
<glyph unicode="&#xb2a1;" d="M753 222v-356h-596v356h69v-115h458v115h69zM684 -71v116h-458v-116h458zM234 528h522v-61h-593v286h71v-225zM875 359v-61h-840v61h840z" />
<glyph unicode="&#xb2a3;" d="M455 30q-8 -17 -33 -33.5t-51 -30.5q-63 -32 -122 -57.5t-113 -46.5l-29 55q62 23 116 46t102 47q27 14 45.5 25.5t29.5 26.5t15.5 36t4.5 53v55h70v-55q0 -32 4.5 -53t15.5 -36t29.5 -26.5t45.5 -25.5q48 -24 102 -47t116 -46l-29 -55q-54 21 -113 46.5t-122 57.5 q-26 14 -51 30.5t-33 33.5zM234 515h522v-61h-593v294h71v-233zM875 334v-61h-840v61h840z" />
<glyph unicode="&#xb2a5;" d="M234 748v-235h522v-61h-593v296h71zM875 341v-61h-840v61h840zM455 196q56 0 107.5 -10.5t90.5 -30.5t62.5 -50.5t23.5 -69.5v-34q0 -39 -23.5 -69.5t-62.5 -50.5t-90.5 -30.5t-107.5 -10.5t-107.5 10.5t-90.5 30.5t-62.5 50.5t-23.5 69.5v34q0 40 23.5 70t62.5 50.5 t90.5 30.5t107.5 10zM455 -100q40 0 79 7t69.5 20.5t49 33t18.5 44.5v26q0 25 -18.5 44.5t-49 33t-69.5 20.5t-79 7q-41 0 -79.5 -7t-69 -20.5t-49 -33t-18.5 -44.5v-26q0 -25 18.5 -44.5t49 -33t69 -20.5t79.5 -7z" />
<glyph unicode="&#xb2a6;" d="M455 4q-12 -20 -43.5 -37t-76.5 -37q-45 -18 -91.5 -36t-90.5 -33l-25 55q47 16 96 34t91 35q31 13 51.5 24.5t32.5 24t17 27t5 34.5v34h-286v61h640v-61h-286v-34q0 -20 5 -35t17 -27.5t32.5 -23.5t51.5 -24q42 -17 91 -35t96 -34l-25 -55q-44 15 -90 33t-91 36 q-48 20 -78 37t-42 37h-1zM234 522h522v-61h-593v287h71v-226zM875 357v-61h-840v61h840z" />
<glyph unicode="&#xb2aa;" d="M144 185h622v-60h-127v-199h131v-60h-629v60h130v199h-127v60zM234 528h522v-61h-593v286h71v-225zM875 357v-60h-840v60h840zM340 -74h230v199h-230v-199z" />
<glyph unicode="&#xb2ac;" d="M804 -136h-71v914h71v-914zM570 335h-454v372h71v-308h383v-64zM669 103q-62 -6 -122 -10.5t-130.5 -7.5t-157 -4t-201.5 -1v62q108 0 194.5 1t158.5 3.5t133 7t119 10.5z" />
<glyph unicode="&#xb2b0;" d="M574 435h-446v303h70v-240h376v-63zM282 -63h535v-62h-606v270h71v-208zM794 94h-70v684h70v-684zM660 269q-74 -8 -138.5 -12t-133 -6.5t-148 -3t-183.5 -0.5v62q106 0 184.5 1t145 3t129.5 6.5t138 10.5z" />
<glyph unicode="&#xb2b4;" d="M794 289h-70v489h70v-489zM794 235v-217h-514v-98h541v-60h-610v217h514v98h-519v60h588zM574 495h-446v253h70v-190h376v-63zM660 353q-76 -6 -142 -9.5t-135 -5t-147.5 -2t-178.5 -0.5v61q100 0 179 0.5t148 2.5t133.5 5t136.5 9z" />
<glyph unicode="&#xb2c8;" d="M791 -136h-71v914h71v-914zM185 179h131q72 0 147.5 5.5t157.5 19.5l9 -63q-81 -14 -165 -20t-156 -6h-195v588h71v-524z" />
<glyph unicode="&#xb2c9;" d="M198 200h590v-343h-70v280h-520v63zM788 254h-70v524h70v-524zM174 728v-333q73 0 130 1t107.5 3.5t100 7t106.5 12.5l8 -63q-59 -8 -110 -13t-108.5 -7.5t-130 -3.5t-174.5 -1v397h71z" />
<glyph unicode="&#xb2cc;" d="M788 125h-70v653h70v-653zM297 -62h514v-63h-585v305h71v-242zM174 723v-359q73 0 130 1t107.5 3.5t100 7t106.5 12.5l8 -63q-59 -8 -110 -13t-108.5 -7.5t-130 -3.5t-174.5 -1v423h71z" />
<glyph unicode="&#xb2d0;" d="M788 278v-238h-492v-119h516v-60h-585v238h492v118h-497v61h566zM788 332h-70v446h70v-446zM174 743v-293q73 0 130 1t107.5 3.5t100 7t106.5 12.5l8 -63q-59 -8 -110 -13t-108.5 -7.5t-130 -3.5t-174.5 -1v357h71z" />
<glyph unicode="&#xb2d2;" d="M788 330h-70v448h70v-448zM174 743v-293q73 0 130 1t107.5 3.5t100 7t106.5 12.5l8 -63q-59 -8 -110 -13t-108.5 -7.5t-130 -3.5t-174.5 -1v357h71zM510 -139v415h278v-415h-278zM576 217v-297h146v297h-146zM443 276v-236h-211v-119h56q19 0 42 1t47 2.5t46 3.5t39 4 l5 -59q-38 -5 -89.5 -8.5t-102.5 -3.5h-109v237h211v118h-216v60h282z" />
<glyph unicode="&#xb2d8;" d="M788 273h-70v505h70v-505zM227 219h561v-353h-561v353zM295 -71h425v227h-425v-227zM174 728v-315q73 0 130 1t107.5 3.5t100 7t106.5 12.5l8 -63q-59 -8 -110 -13t-108.5 -7.5t-130 -3.5t-174.5 -1v379h71z" />
<glyph unicode="&#xb2d9;" d="M788 263v-397h-560v397h69v-129h422v129h69zM719 -71v143h-422v-143h422zM174 728v-300q73 0 130 1t107.5 3.5t100 7t106.5 12.5l8 -63q-59 -8 -110 -13t-108.5 -7.5t-130 -3.5t-174.5 -1v364h71zM788 317h-70v461h70v-461z" />
<glyph unicode="&#xb2db;" d="M788 196h-70v582h70v-582zM465 236h70v-80q0 -31 5.5 -53t18 -39.5t32.5 -31.5t49 -29q39 -20 91 -43t97 -41l-29 -57q-49 20 -98 43.5t-83 40.5q-100 50 -118 87q-18 -37 -118 -87q-34 -17 -83 -40.5t-98 -43.5l-30 57q22 9 47.5 19.5t50 21.5t48 22t43.5 21 q28 14 47.5 28t32.5 31.5t19 40t6 53.5v80zM174 723v-327q73 0 130 1t107.5 3.5t100 7t106.5 12.5l8 -63q-59 -8 -110 -13t-108.5 -7.5t-130 -3.5t-174.5 -1v391h71z" />
<glyph unicode="&#xb2dd;" d="M788 244h-70v534h70v-534zM174 725v-333q73 0 130 1t107.5 3.5t100 7t106.5 12.5l8 -63q-59 -8 -110 -13t-108.5 -7.5t-130 -3.5t-174.5 -1v397h71zM793 12q0 -38 -20.5 -69.5t-57.5 -54t-88 -35.5t-112 -13t-112 13t-88 35.5t-57.5 54t-20.5 69.5v40q0 37 20.5 69 t57.5 54.5t88 35.5t112 13t112 -13t88 -35.5t57.5 -54.5t20.5 -69v-40zM515 -100q45 0 83.5 9.5t66.5 25.5t44 37t16 45v30q0 24 -16 45t-44 37t-66.5 25.5t-83.5 9.5t-83.5 -9.5t-66.5 -25.5t-44 -37t-16 -45v-30q0 -24 16 -45t44 -37t66.5 -25.5t83.5 -9.5z" />
<glyph unicode="&#xb2e2;" d="M195 219h606v-60h-120v-233h124v-60h-613v60h123v233h-120v60zM174 730v-322q73 0 130 1t107.5 3.5t100 7t106.5 12.5l8 -63q-59 -8 -110 -13t-108.5 -7.5t-130 -3.5t-174.5 -1v386h71zM384 -74h228v233h-228v-233zM788 273h-70v505h70v-505z" />
<glyph unicode="&#xb2e4;" d="M86 695h416v-64h-345v-459h118q77 0 151.5 5.5t159.5 19.5l9 -63q-80 -14 -166.5 -20t-171.5 -6h-171v587zM744 439h152v-63h-152v-512h-71v914h71v-339z" />
<glyph unicode="&#xb2e5;" d="M83 723h419v-62h-348v-283q75 0 131.5 0.5t105 3t94 6.5t99.5 10l8 -61q-37 -5 -70 -8t-66 -5.5t-69.5 -4t-80.5 -2t-98.5 -1t-124.5 -0.5v407zM180 196h573v-339h-70v277h-503v62zM753 555h140v-62h-140v-243h-70v528h70v-223z" />
<glyph unicode="&#xb2e6;" d="M83 723h419v-62h-348v-283q75 0 131.5 0.5t105 3t94 6.5t99.5 10l8 -61q-37 -5 -70 -8t-66 -5.5t-69.5 -4t-80.5 -2t-98.5 -1t-124.5 -0.5v407zM753 553h140v-62h-140v-238h-70v525h70v-225zM137 199h294v-342h-69v280h-225v62zM481 199h272v-342h-69v280h-203v62z" />
<glyph unicode="&#xb2e8;" d="M84 718h419v-63h-348v-304q75 0 131.5 0.5t105 3t94 6.5t99.5 10l8 -62q-37 -5 -70 -8t-66 -5.5t-69.5 -4t-80.5 -2t-98.5 -1t-124.5 -0.5v430zM754 529h140v-62h-140v-343h-70v654h70v-249zM278 -62h504v-63h-575v301h71v-238z" />
<glyph unicode="&#xb2eb;" d="M202 211h554v-62h-483v-220h500v-63h-571v345zM83 723h419v-62h-348v-264q75 0 131.5 0.5t105 3t94 6.5t99.5 10l8 -61q-37 -5 -70 -8t-66 -5.5t-69.5 -4t-80.5 -2t-98.5 -1t-124.5 -0.5v388zM753 557h140v-62h-140v-230h-70v513h70v-221z" />
<glyph unicode="&#xb2ec;" d="M754 274v-236h-482v-117h506v-60h-575v236h482v116h-487v61h556zM84 738h419v-62h-349v-246q75 0 132 0.5t105.5 3t94 6.5t99.5 10l8 -61q-37 -5 -70 -8t-66 -5.5t-69.5 -4t-80.5 -2t-98.5 -1t-124.5 -0.5v370zM754 593h140v-62h-140v-203h-70v450h70v-185z" />
<glyph unicode="&#xb2ed;" d="M83 738h419v-62h-349v-246q75 0 132 0.5t105.5 3t94 6.5t99.5 10l8 -61q-37 -5 -70 -8t-66 -5.5t-69.5 -4t-80.5 -2t-98.5 -1t-124.5 -0.5v370zM438 270v-233h-224v-116h119q19 0 42 1t47 2.5t46 3.5t39 4l5 -59q-38 -5 -89.5 -8.5t-102.5 -3.5h-172v234h224v115h-229v60 h295zM753 270v-419h-69v358h-192v61h261zM753 593h140v-62h-140v-207h-70v454h70v-185z" />
<glyph unicode="&#xb2ee;" d="M480 -139v407h273v-407h-273zM83 738h419v-62h-349v-246q75 0 132 0.5t105.5 3t94 6.5t99.5 10l8 -61q-37 -5 -70 -8t-66 -5.5t-69.5 -4t-80.5 -2t-98.5 -1t-124.5 -0.5v370zM413 268v-232h-209v-115h54q19 0 42 1t47 2.5t46 3.5t39 4l5 -59q-38 -5 -89.5 -8.5 t-102.5 -3.5h-107v233h209v114h-214v60h280zM546 209v-289h141v289h-141zM753 593h140v-62h-140v-207h-70v454h70v-185z" />
<glyph unicode="&#xb2ef;" d="M753 270v-409h-279v409h66v-141h147v141h66zM83 738h419v-62h-349v-246q75 0 132 0.5t105.5 3t94 6.5t99.5 10l8 -61q-37 -5 -70 -8t-66 -5.5t-69.5 -4t-80.5 -2t-98.5 -1t-124.5 -0.5v370zM405 268v-232h-204v-115h50q19 0 42 1t47 2.5t46 3.5t39 4l5 -59 q-38 -5 -89.5 -8.5t-102.5 -3.5h-103v233h204v114h-209v60h275zM753 593h140v-62h-140v-207h-70v454h70v-185zM687 -80v151h-147v-151h147z" />
<glyph unicode="&#xb2f3;" d="M83 738h419v-62h-349v-246q75 0 132 0.5t105.5 3t94 6.5t99.5 10l8 -61q-37 -5 -70 -8t-66 -5.5t-69.5 -4t-80.5 -2t-98.5 -1t-124.5 -0.5v370zM474 -5q0 25 9.5 47.5t29 39.5t48 27.5t66.5 10.5t66.5 -10.5t48 -28t29 -40t9.5 -46.5v-26q0 -24 -10 -46.5t-29 -40 t-48 -28t-66 -10.5q-38 0 -66.5 10.5t-48 28t-29 40t-9.5 46.5v26zM411 268v-231h-208v-116h55q19 0 42 1t47 2.5t46 3.5t39 4l6 -58q-39 -6 -90.5 -9.5t-102.5 -3.5h-107v234h208v113h-213v60h278zM753 598h140v-62h-140v-193h-70v435h70v-180zM660 213h137v-56h-341v56 h135v87h69v-87zM718 -8q0 29 -23 51t-68 22t-68 -22t-23 -51v-20q0 -29 23 -51t68 -22t68 22t23 51v20z" />
<glyph unicode="&#xb2f4;" d="M204 214h549v-348h-549v348zM272 -71h413v222h-413v-222zM83 723h419v-62h-349v-263q75 0 132 0.5t105.5 3t94 6.5t99.5 10l8 -62q-37 -5 -70 -8t-66 -5.5t-69.5 -4t-80.5 -2t-98.5 -1t-124.5 -0.5v388zM753 563h140v-62h-140v-233h-70v510h70v-215z" />
<glyph unicode="&#xb2f5;" d="M753 261v-395h-548v395h69v-127h410v127h69zM83 723h419v-62h-349v-252q75 0 132 0.5t105.5 3t94 6.5t99.5 10l8 -62q-37 -5 -70 -8t-66 -5.5t-69.5 -4t-80.5 -2t-98.5 -1t-124.5 -0.5v377zM684 -71v143h-410v-143h410zM753 579h140v-62h-140v-202h-70v463h70v-199z" />
<glyph unicode="&#xb2f7;" d="M83 718h419v-62h-348v-274q75 0 131.5 0.5t105 3t94 6.5t99.5 10l8 -62q-37 -5 -70 -8t-66 -5.5t-69.5 -4t-80.5 -2t-98.5 -1t-124.5 -0.5v399zM440 236h70v-80q0 -31 5.5 -53t18 -39.5t32.5 -31.5t49 -29q39 -20 91 -43t97 -41l-29 -57q-49 20 -98 43.5t-83 40.5 q-100 50 -118 87q-18 -37 -118 -87q-34 -17 -83 -40.5t-98 -43.5l-30 57q22 9 47.5 19.5t50 21.5t48 22t43.5 21q28 14 47.5 28t32.5 31.5t19 40t6 53.5v80zM753 555h140v-62h-140v-297h-70v582h70v-223z" />
<glyph unicode="&#xb2f8;" d="M494 -138q-84 71 -121.5 110.5t-41.5 49.5q-6 -10 -21 -27t-50 -47q-19 -17 -45 -38t-61 -48l-39 50q64 48 102 81q28 24 44 42t24 35t10 35t2 42v89h69v-92q0 -23 1.5 -39.5t7.5 -31.5t19.5 -31.5t37.5 -40.5q12 -12 27.5 -26t34.5 -29q19 15 34.5 29t27.5 26 q24 24 37.5 40.5t19.5 31.5t7.5 31.5t1.5 39.5v92h69v-89q0 -24 2 -42t10 -35t24 -35t44 -42q37 -33 102 -81l-39 -50q-35 27 -61 48t-45 38q-35 30 -50 47t-21 27q-4 -10 -41.5 -49.5t-121.5 -110.5zM84 723h419v-62h-348v-266q75 0 131.5 0.5t105 3t94 6.5t99.5 10l8 -62 q-37 -5 -70 -8t-66 -5.5t-69.5 -4t-80.5 -2t-98.5 -1t-124.5 -0.5v391zM754 571h140v-62h-140v-218h-70v487h70v-207z" />
<glyph unicode="&#xb2f9;" d="M487 220q56 0 105.5 -12t86.5 -34t58.5 -54t21.5 -71v-38q0 -39 -21.5 -71t-58.5 -54t-86.5 -34t-105.5 -12t-105.5 12t-86.5 34t-58.5 54t-21.5 71v38q0 40 21.5 72t58.5 54t86.5 33.5t105.5 11.5zM487 -100q40 0 77 8t65 22.5t45 35.5t17 48v32q0 27 -17 48t-45 35.5 t-65 22.5t-77 8t-77 -8t-65 -22.5t-45 -35.5t-17 -48v-32q0 -27 17 -48t45 -35.5t65 -22.5t77 -8zM84 720h419v-62h-348v-281q75 0 131.5 0.5t105 3t94 6.5t99.5 10l8 -62q-37 -4 -70 -7.5t-66 -6t-69.5 -4t-80.5 -2t-98.5 -1t-124.5 -0.5v406zM754 557h140v-62h-140v-255 h-70v538h70v-221z" />
<glyph unicode="&#xb2fa;" d="M482 28q-11 -21 -41.5 -43t-78.5 -45q-44 -21 -87.5 -40.5t-88.5 -37.5l-26 54q48 18 93.5 38.5t87.5 40.5q58 28 82 57t24 68v39h-259v61h584v-61h-256v-39q0 -39 23.5 -68t82.5 -57q42 -20 87.5 -40.5t93.5 -38.5l-26 -54q-45 18 -88.5 37.5t-87.5 40.5q-94 46 -119 88 zM83 723h419v-62h-349v-258q75 0 132 0.5t105.5 3t94 6.5t99.5 10l8 -62q-37 -4 -70 -7.5t-66 -6t-69.5 -4t-80.5 -2t-98.5 -1t-124.5 -0.5v383zM753 563h140v-62h-140v-227h-70v504h70v-215z" />
<glyph unicode="&#xb2fb;" d="M515 184h260v-61h-260v-20q0 -20 5 -36t17 -30t32.5 -26.5t51.5 -25.5q42 -17 89 -34.5t93 -33.5l-25 -55q-89 32 -177 68q-96 41 -120 82q-12 -21 -42 -41.5t-78 -40.5q-88 -36 -177 -68l-25 55q46 17 93 34t89 34q31 13 51.5 25.5t32.5 26.5t17 30t5 36v20h-262v61h262 v105h68v-105zM83 728h419v-62h-349v-255q75 0 132 0.5t105.5 3t94 6.5t99.5 10l8 -61q-37 -4 -70 -7.5t-66 -6t-69.5 -4t-80.5 -2t-98.5 -1t-124.5 -0.5v379zM753 584h140v-62h-140v-243h-70v499h70v-194z" />
<glyph unicode="&#xb2ff;" d="M479 120q51 0 94.5 -9t75 -26t49 -41t17.5 -54v-22q0 -30 -17.5 -54t-49 -41t-75 -26t-94.5 -9t-94.5 9t-75 26t-49 41t-17.5 54v22q0 30 17.5 54t49 41t75 26t94.5 9zM83 738h419v-62h-349v-240q75 0 132 0.5t105.5 3t94 6.5t99.5 10l8 -61q-37 -5 -70 -8t-66 -5.5 t-69.5 -4t-80.5 -2t-98.5 -1t-124.5 -0.5v364zM479 -106q37 0 67.5 6t52.5 16t34.5 24t12.5 30v18q0 16 -12.5 30t-34.5 24t-52.5 16t-67.5 6t-67.5 -6t-52.5 -16t-34.5 -24t-12.5 -30v-18q0 -16 12.5 -30t34.5 -24t52.5 -16t67.5 -6zM753 587h140v-62h-140v-215h-70v468h70 v-191zM444 226v90h70v-90h265v-58h-600v58h265z" />
<glyph unicode="&#xb300;" d="M614 449h133v329h70v-914h-70v522h-133v-477h-70v850h70v-310zM423 691v-64h-274v-450h42q41 0 77 1t70 3t67 6t67 10l8 -63q-72 -12 -139.5 -16.5t-143.5 -4.5h-119v578h345z" />
<glyph unicode="&#xb301;" d="M610 558h134v220h69v-531h-69v248h-134v-246h-69v517h69v-208zM418 718v-62h-267v-276q54 0 96 1t77.5 3t68 6t69.5 10l8 -61q-36 -6 -68.5 -10t-75 -6.5t-101 -3.5t-145.5 -1v400h338zM219 192h594v-335h-70v273h-524v62z" />
<glyph unicode="&#xb304;" d="M610 533h134v245h69v-649h-69v341h-134v-319h-69v615h69v-233zM418 713v-62h-267v-296q54 0 96 1t77.5 3t68 6t69.5 10l8 -61q-36 -6 -68.5 -10t-75 -6.5t-101 -3.5t-145.5 -1v420h338zM303 -63h530v-62h-601v301h71v-239z" />
<glyph unicode="&#xb308;" d="M813 271v-234h-503v-116h527v-60h-596v235h503v114h-508v61h577zM610 595h134v183h69v-453h-69v207h-134v-205h-69v439h69v-171zM418 732v-62h-268v-238q54 0 96 1t77.5 3t68.5 6t70 10l8 -61q-36 -6 -68.5 -10t-75 -6.5t-101 -3.5t-145.5 -1v362h338z" />
<glyph unicode="&#xb310;" d="M246 209h567v-343h-567v343zM314 -71h431v217h-431v-217zM610 566h134v212h69v-515h-69v240h-134v-238h-69v501h69v-200zM418 718v-62h-267v-259q54 0 96 1t77.5 3t68 6t69.5 10l8 -61q-36 -6 -68.5 -10t-75 -6.5t-101 -3.5t-145.5 -1v383h338z" />
<glyph unicode="&#xb311;" d="M813 256v-391h-568v391h69v-128h430v128h69zM610 580h134v198h69v-468h-69v207h-134v-205h-69v454h69v-186zM418 718v-62h-267v-247q54 0 96 1t77.5 3t68 6t69.5 10l8 -61q-36 -6 -68.5 -10t-75 -6.5t-101 -3.5t-145.5 -1v371h338zM744 -72v138h-430v-138h430z" />
<glyph unicode="&#xb313;" d="M610 561h134v217h69v-582h-69v302h-134v-213h-69v481h69v-205zM418 714v-62h-267v-271q54 0 96 1t77.5 3t68 6t69.5 10l8 -61q-36 -6 -68.5 -10t-75 -6.5t-101 -3.5t-145.5 -1v395h338zM470 236h70v-80q0 -31 5.5 -53t18 -39.5t32.5 -31.5t49 -29q39 -20 91 -43t97 -41 l-29 -57q-49 20 -98 43.5t-83 40.5q-100 50 -118 87q-18 -37 -118 -87q-34 -17 -83 -40.5t-98 -43.5l-30 57q22 9 47.5 19.5t50 21.5t48 22t43.5 21q28 14 47.5 28t32.5 31.5t19 40t6 53.5v80z" />
<glyph unicode="&#xb314;" d="M503 -138q-84 71 -121.5 110.5t-41.5 49.5q-6 -10 -21 -27t-50 -47q-19 -17 -45 -38t-61 -48l-39 50q64 48 102 81q28 24 44 42t24 35t10 35t2 42v88h69v-91q0 -23 1.5 -39.5t7.5 -31.5t19.5 -31.5t37.5 -40.5q12 -12 27.5 -26t34.5 -29q19 15 34.5 29t27.5 26 q24 24 37.5 40.5t19.5 31.5t7.5 31.5t1.5 39.5v91h69v-88q0 -24 2 -42t10 -35t24 -35t44 -42q37 -33 102 -81l-39 -50q-35 27 -61 48t-45 38q-35 30 -50 47t-21 27q-4 -10 -41.5 -49.5t-121.5 -110.5zM610 572h134v206h69v-500h-69v231h-134v-217h-69v474h69v-194zM418 718 v-62h-267v-264q54 0 96 1t77.5 3t68 6t69.5 10l8 -61q-36 -6 -68.5 -10t-75 -6.5t-101 -3.5t-145.5 -1v388h338z" />
<glyph unicode="&#xb315;" d="M536 210q56 0 107 -11.5t90 -33t62 -52.5t23 -70v-36q0 -39 -23 -70t-62 -52.5t-90 -33t-107 -11.5t-107 11.5t-90 33t-62 52.5t-23 70v37q0 40 23 71t62 52t90 32t107 11zM536 -100q40 0 78.5 7t68.5 21t48.5 34.5t18.5 47.5v30q0 27 -18.5 47.5t-48.5 34.5t-68.5 21 t-78.5 7t-78.5 -7t-68.5 -21t-48.5 -34t-18.5 -47v-31q0 -27 18.5 -47.5t48.5 -34.5t68.5 -21t78.5 -7zM610 563h134v215h69v-548h-69v270h-134v-231h-69v497h69v-203zM418 715v-62h-267v-277q54 0 96 1t77.5 3t68 6t69.5 10l8 -61q-36 -6 -68.5 -10t-75 -6.5t-101 -3.5 t-145.5 -1v401h338z" />
<glyph unicode="&#xb31c;" d="M86 695h416v-64h-345v-459h118q77 0 151.5 5.5t159.5 19.5l9 -63q-80 -14 -166.5 -20t-171.5 -6h-171v587zM742 565h152v-63h-152v-194h152v-63h-152v-381h-70v914h70v-213z" />
<glyph unicode="&#xb354;" d="M98 695h416v-64h-345v-460h133q77 0 151.5 5.5t159.5 19.5l9 -63q-80 -14 -166.5 -20t-171.5 -6h-186v588zM794 -136h-71v527h-260v64h260v323h71v-914z" />
<glyph unicode="&#xb355;" d="M96 723h422v-62h-351v-296q75 0 131.5 0.5t105 3t94 6.5t99.5 10l8 -61q-37 -4 -70 -7.5t-66 -6t-69.5 -4t-80.5 -2t-98.5 -1t-124.5 -0.5v420zM208 190h587v-333h-70v271h-517v62zM795 244h-70v249h-262v63h262v222h70v-534z" />
<glyph unicode="&#xb356;" d="M96 723h422v-62h-351v-291q75 0 131.5 0.5t105 3t94 6.5t99.5 10l8 -61q-37 -5 -70 -8t-66 -5.5t-69.5 -4t-80.5 -2t-98.5 -1t-124.5 -0.5v415zM725 557v221h70v-528h-70v245h-262v62h262zM166 196h302v-339h-68v277h-234v62zM518 196h277v-339h-68v277h-209v62z" />
<glyph unicode="&#xb358;" d="M96 718h422v-62h-351v-323q75 0 131.5 0.5t105 3t94 6.5t99.5 10l8 -61q-37 -5 -70 -8t-66 -5.5t-69.5 -4t-80.5 -2t-98.5 -1t-124.5 -0.5v447zM795 120h-70v355h-262v63h262v240h70v-658zM306 -62h512v-63h-583v292h71v-229z" />
<glyph unicode="&#xb35b;" d="M236 205h562v-62h-491v-214h508v-63h-579v339zM96 723h422v-62h-351v-276q75 0 131.5 0.5t105 3t94 6.5t99.5 10l8 -61q-37 -4 -70 -7.5t-66 -6t-69.5 -4t-80.5 -2t-98.5 -1t-124.5 -0.5v400zM725 567v211h70v-519h-70v245h-262v63h262z" />
<glyph unicode="&#xb35c;" d="M795 268v-233h-491v-114h515v-60h-584v233h491v113h-496v61h565zM97 738h421v-62h-351v-254q75 0 132 0.5t105.5 3t94 6.5t99.5 10l8 -61q-37 -5 -70 -8t-66 -5.5t-69.5 -4t-80.5 -2t-98.5 -1t-124.5 -0.5v378zM725 592v186h70v-456h-70v208h-262v62h262z" />
<glyph unicode="&#xb35e;" d="M517 -139v407h278v-407h-278zM96 738h422v-62h-352v-254q75 0 132 0.5t105.5 3t94 6.5t99.5 10l8 -61q-37 -5 -70 -8t-66 -5.5t-69.5 -4t-80.5 -2t-98.5 -1t-124.5 -0.5v378zM450 268v-232h-212v-115h57q19 0 42 1t47 2.5t46 3.5t39 4l5 -59q-38 -5 -89.5 -8.5 t-102.5 -3.5h-110v233h212v114h-217v60h283zM725 592v186h70v-456h-70v208h-262v62h262zM583 209v-289h146v289h-146z" />
<glyph unicode="&#xb35f;" d="M795 264v-403h-284v403h66v-137h152v137h66zM96 738h422v-62h-352v-254q75 0 132 0.5t105.5 3t94 6.5t99.5 10l8 -61q-37 -5 -70 -8t-66 -5.5t-69.5 -4t-80.5 -2t-98.5 -1t-124.5 -0.5v378zM444 262v-229h-211v-112h56q19 0 42 1t47 2.5t46 3.5t39 4l5 -59 q-38 -5 -89.5 -8.5t-102.5 -3.5h-109v230h211v111h-216v60h282zM725 592v186h70v-456h-70v208h-262v62h262zM729 -80v147h-152v-147h152z" />
<glyph unicode="&#xb364;" d="M236 209h559v-343h-559v343zM304 -71h423v217h-423v-217zM96 723h422v-62h-352v-275q75 0 132 0.5t105.5 3t94 6.5t99.5 10l8 -62q-37 -4 -70 -7.5t-66 -6t-69.5 -4t-80.5 -2t-98.5 -1t-124.5 -0.5v400zM725 565v213h70v-515h-70v239h-262v63h262z" />
<glyph unicode="&#xb365;" d="M795 252v-386h-558v386h69v-122h420v122h69zM96 723h422v-62h-352v-266q75 0 132 0.5t105.5 3t94 6.5t99.5 10l8 -61q-37 -5 -70 -8t-66 -5.5t-69.5 -4t-80.5 -2t-98.5 -1t-124.5 -0.5v390zM726 -71v139h-420v-139h420zM725 569v209h70v-472h-70v201h-262v62h262z" />
<glyph unicode="&#xb367;" d="M96 718h422v-62h-351v-286q75 0 131.5 0.5t105 3t94 6.5t99.5 10l8 -61q-37 -5 -70 -8t-66 -5.5t-69.5 -4t-80.5 -2t-98.5 -1t-124.5 -0.5v410zM795 194h-70v299h-262v63h262v222h70v-584zM472 232h70v-76q0 -31 5.5 -53t18 -39.5t32.5 -31.5t49 -29q39 -20 91 -43 t97 -41l-29 -57q-49 20 -98 43.5t-83 40.5q-100 50 -118 87q-18 -37 -118 -87q-34 -17 -83 -40.5t-98 -43.5l-30 57q22 9 47.5 19.5t50 21.5t48 22t43.5 21q28 14 47.5 28t32.5 31.5t19 40t6 53.5v76z" />
<glyph unicode="&#xb369;" d="M523 214q56 0 106.5 -11.5t88.5 -33t60 -53t22 -70.5v-38q0 -39 -22 -70.5t-60 -53t-88.5 -33t-106.5 -11.5t-106.5 11.5t-88.5 33t-60 53t-22 70.5v38q0 40 22 71.5t60 53t88.5 32.5t106.5 11zM523 -100q40 0 77.5 7.5t67 22t47 35t17.5 47.5v30q0 27 -17.5 47.5t-47 35 t-67 22t-77.5 7.5t-77.5 -7.5t-67 -22t-47 -35t-17.5 -47.5v-30q0 -27 17.5 -47.5t47 -35t67 -22t77.5 -7.5zM96 720h422v-62h-351v-291q75 0 131.5 0.5t105 3t94 6.5t99.5 10l8 -61q-37 -5 -70 -8t-66 -5.5t-69.5 -4t-80.5 -2t-98.5 -1t-124.5 -0.5v415zM795 234h-70v257 h-262v63h262v224h70v-544z" />
<glyph unicode="&#xb36b;" d="M544 178h264v-61h-264v-14q0 -20 5 -36t17 -30t32.5 -26.5t51.5 -25.5q42 -17 91 -35t96 -33l-25 -55q-44 14 -90.5 32t-91.5 36q-96 41 -120 82q-12 -21 -42 -41.5t-78 -40.5q-45 -18 -91.5 -36t-90.5 -32l-25 55q47 15 96 33t91 35q31 13 51.5 25.5t32.5 26.5t17 30 t5 36v14h-266v61h266v105h68v-105zM96 728h422v-62h-352v-264q75 0 132 0.5t105.5 3t94 6.5t99.5 10l8 -61q-37 -4 -70 -7.5t-66 -6t-69.5 -4t-80.5 -2t-98.5 -1t-124.5 -0.5v388zM725 573v205h70v-504h-70v236h-262v63h262z" />
<glyph unicode="&#xb36e;" d="M204 209h604v-60h-119v-223h123v-60h-611v60h122v223h-119v60zM96 723h422v-62h-352v-276q75 0 132 0.5t105.5 3t94 6.5t99.5 10l8 -61q-37 -4 -70 -7.5t-66 -6t-69.5 -4t-80.5 -2t-98.5 -1t-124.5 -0.5v400zM725 564v214h70v-515h-70v238h-262v63h262zM392 -74h228v223 h-228v-223z" />
<glyph unicode="&#xb370;" d="M423 691v-64h-274v-450h55q41 0 77 1t70 3t67 6t67 10l8 -63q-72 -12 -139.5 -16.5t-143.5 -4.5h-132v578h345zM567 450v309h70v-850h-70v477h-198v64h198zM817 -136h-70v914h70v-914z" />
<glyph unicode="&#xb371;" d="M423 718v-62h-272v-284q54 0 96 1t77.5 3t68.5 5.5t70 8.5l8 -61q-36 -5 -69 -9t-75.5 -6t-101 -3t-145.5 -1v408h343zM219 191h594v-334h-70v272h-524v62zM567 552v214h69v-518h-69v242h-193v62h193zM813 246h-69v532h69v-532z" />
<glyph unicode="&#xb374;" d="M423 713v-62h-272v-305q54 0 96 1t77.5 3t68.5 5.5t70 8.5l8 -61q-36 -5 -69 -9t-75.5 -6t-101 -3t-145.5 -1v429h343zM567 540v226h69v-615h-69v327h-193v62h193zM303 -63h530v-62h-601v300h71v-238zM813 129h-69v649h69v-649z" />
<glyph unicode="&#xb378;" d="M813 269v-233h-503v-115h527v-60h-596v234h503v113h-508v61h577zM423 732v-62h-273v-247q54 0 96 1t78 3t69 5.5t70 8.5l8 -61q-36 -5 -69 -9t-75.5 -6t-101 -3t-145.5 -1v371h343zM567 590v176h69v-441h-69v203h-193v62h193zM813 323h-69v455h69v-455z" />
<glyph unicode="&#xb380;" d="M246 208h567v-342h-567v342zM314 -71h431v216h-431v-216zM423 718v-62h-273v-274q54 0 96 1t78 3t69 5.5t70 8.5l8 -61q-36 -5 -69 -9t-75.5 -6t-101 -3t-145.5 -1v398h343zM567 558v208h69v-502h-69v232h-193v62h193zM813 262h-69v516h69v-516z" />
<glyph unicode="&#xb381;" d="M813 254v-388h-568v388h69v-127h430v127h69zM423 718v-62h-273v-261q54 0 96 1t78 3t69 5.5t70 8.5l8 -61q-36 -5 -69 -9t-75.5 -6t-101 -3t-145.5 -1v385h343zM744 -71v136h-430v-136h430zM567 567v199h69v-456h-69v195h-193v62h193zM813 308h-69v470h69v-470z" />
<glyph unicode="&#xb383;" d="M423 714v-62h-272v-282q54 0 96 1t77.5 3t68.5 5.5t70 8.5l8 -61q-36 -5 -69 -9t-75.5 -6t-101 -3t-145.5 -1v406h343zM470 235h70v-79q0 -31 5.5 -53t18 -39.5t32.5 -31.5t49 -29q39 -20 91 -43t97 -41l-29 -57q-49 20 -98 43.5t-83 40.5q-100 50 -118 87 q-18 -37 -118 -87q-34 -17 -83 -40.5t-98 -43.5l-30 57q22 9 47.5 19.5t50 21.5t48 22t43.5 21q28 14 47.5 28t32.5 31.5t19 40t6 53.5v79zM567 551v215h69v-483h-69v206h-193v62h193zM813 195h-69v583h69v-583z" />
<glyph unicode="&#xb384;" d="M503 -138q-84 71 -121.5 110.5t-41.5 49.5q-6 -10 -21 -27t-50 -47q-19 -17 -45 -38t-61 -48l-39 50q64 48 102 81q28 24 44 42t24 35t10 35t2 42v85h69v-88q0 -23 1.5 -39.5t7.5 -31.5t19.5 -31.5t37.5 -40.5q12 -12 27.5 -26t34.5 -29q19 15 34.5 29t27.5 26 q24 24 37.5 40.5t19.5 31.5t7.5 31.5t1.5 39.5v88h69v-85q0 -24 2 -42t10 -35t24 -35t44 -42q37 -33 102 -81l-39 -50q-35 27 -61 48t-45 38q-35 30 -50 47t-21 27q-4 -10 -41.5 -49.5t-121.5 -110.5zM423 718v-62h-272v-279q54 0 96 1t77.5 3t68.5 5.5t70 8.5l8 -61 q-36 -5 -69 -9t-75.5 -6t-101 -3t-145.5 -1v403h343zM567 556v210h69v-472h-69v200h-193v62h193zM813 280h-69v498h69v-498z" />
<glyph unicode="&#xb385;" d="M535 210q56 0 107 -11.5t90 -33t62 -52.5t23 -70v-36q0 -39 -23 -70t-62 -52.5t-90 -33t-107 -11.5t-107 11.5t-90 33t-62 52.5t-23 70v37q0 40 23 71t62 52t90 32t107 11zM535 -100q40 0 78.5 7t68.5 21t48.5 34.5t18.5 47.5v30q0 27 -18.5 47.5t-48.5 34.5t-68.5 21 t-78.5 7t-78.5 -7t-68.5 -21t-48.5 -34t-18.5 -47v-31q0 -27 18.5 -47.5t48.5 -34.5t68.5 -21t78.5 -7zM423 715v-62h-272v-288q54 0 96 1t77.5 3t68.5 5.5t70 8.5l8 -61q-36 -5 -69 -9t-75.5 -6t-101 -3t-145.5 -1v412h343zM567 549v217h69v-497h-69v218h-193v62h193z M813 230h-69v548h69v-548z" />
<glyph unicode="&#xb38c;" d="M724 545v233h70v-914h-70v418h-257v63h257v137h-257v63h257zM98 697h416v-64h-345v-467h133q39 0 76.5 1t75 4t77 7t82.5 10l9 -63q-80 -13 -166.5 -18t-171.5 -5h-186v595z" />
<glyph unicode="&#xb390;" d="M95 721h407v-62h-336v-353q75 0 129 0.5t99 3t87 6.5t95 10l8 -61q-39 -5 -70.5 -8t-63 -5.5t-64.5 -4t-74.5 -2t-94.5 -1t-122 -0.5v477zM726 603v175h69v-662h-69v274h-248v61h248v91h-248v61h248zM306 -62h512v-63h-583v284h71v-221z" />
<glyph unicode="&#xb394;" d="M795 248v-223h-491v-104h515v-60h-584v223h491v103h-496v61h565zM95 739h399v-62h-329v-296q75 0 130.5 0.5t102.5 2.5t90.5 5.5t96.5 9.5l8 -60q-39 -4 -71.5 -7t-64.5 -5t-66.5 -3.5t-77 -2t-96 -1t-122.5 -0.5v419zM726 646v132h69v-476h-69v140h-221v61h221v82h-221 v61h221z" />
<glyph unicode="&#xb3a0;" d="M503 -138q-84 71 -121.5 110.5t-41.5 49.5q-6 -10 -21 -27t-50 -47q-19 -17 -45 -38t-61 -48l-39 50q64 48 102 81q28 24 44 42t24 35t10 35t2 42v75h69v-78q0 -23 1.5 -39.5t7.5 -31.5t19.5 -31.5t37.5 -40.5q12 -12 27.5 -26t34.5 -29q19 15 34.5 29t27.5 26 q24 24 37.5 40.5t19.5 31.5t7.5 31.5t1.5 39.5v78h69v-75q0 -24 2 -42t10 -35t24 -35t44 -42q37 -33 102 -81l-39 -50q-35 27 -61 48t-45 38q-35 30 -50 47t-21 27q-4 -10 -41.5 -49.5t-121.5 -110.5zM95 730h399v-62h-328v-319q72 0 125 0.5t98.5 2.5t89 5.5t96.5 9.5 l8 -60q-58 -6 -103.5 -9.5t-97.5 -6t-119.5 -3t-167.5 -0.5v442zM726 628v150h69v-510h-69v152h-241v61h241v86h-241v61h241z" />
<glyph unicode="&#xb3a1;" d="M523 214q56 0 106.5 -11.5t88.5 -33t60 -53t22 -70.5v-38q0 -39 -22 -70.5t-60 -53t-88.5 -33t-106.5 -11.5t-106.5 11.5t-88.5 33t-60 53t-22 70.5v38q0 40 22 71.5t60 53t88.5 32.5t106.5 11zM523 -100q40 0 77.5 7.5t67 22t47 35t17.5 47.5v30q0 27 -17.5 47.5t-47 35 t-67 22t-77.5 7.5t-77.5 -7.5t-67 -22t-47 -35t-17.5 -47.5v-30q0 -27 17.5 -47.5t47 -35t67 -22t77.5 -7.5zM95 723h399v-62h-328v-316q72 0 125 0.5t98.5 2.5t89 5.5t96.5 9.5l8 -60q-58 -6 -103.5 -9.5t-97.5 -6t-119.5 -3t-167.5 -0.5v439zM726 623v155h69v-509h-69v146 h-241v61h241v86h-241v61h241z" />
<glyph unicode="&#xb3a8;" d="M570 531v228h70v-850h-70v379h-193v62h193v119h-193v62h193zM428 692v-64h-279v-452h59q41 0 77 1t70 3t67 6t67 10l8 -63q-72 -12 -139.5 -16.5t-143.5 -4.5h-136v580h350zM817 -136h-70v914h70v-914z" />
<glyph unicode="&#xb3ac;" d="M426 715v-62h-275v-333q54 0 96.5 1t78.5 3t69 5.5t70 8.5l8 -61q-36 -5 -69 -9t-76 -6t-102 -3t-146 -1v457h346zM570 600v166h68v-619h-68v245h-186v60h186v88h-186v60h186zM303 -63h530v-62h-601v292h71v-230zM813 125h-69v653h69v-653z" />
<glyph unicode="&#xb3c4;" d="M764 286h-274v-232h385v-61h-840v61h385v232h-264v412h598v-61h-527v-290h537v-61z" />
<glyph unicode="&#xb3c5;" d="M745 681h-514v-189h519v-60h-260v-117h385v-60h-840v60h385v117h-258v309h583v-60zM142 150h612v-293h-70v232h-542v61z" />
<glyph unicode="&#xb3c8;" d="M745 676h-514v-198h519v-60h-260v-135h385v-60h-840v60h385v135h-258v318h583v-60zM230 -63h539v-62h-610v268h71v-206z" />
<glyph unicode="&#xb3cb;" d="M745 681h-514v-183h519v-60h-260v-108h385v-60h-840v60h385v108h-258v303h583v-60zM157 174h598v-61h-529v-186h546v-61h-615v308z" />
<glyph unicode="&#xb3cc;" d="M420 374v97h-258v280h583v-60h-514v-160h519v-60h-260v-97h385v-60h-840v60h385zM750 227v-212h-521v-96h548v-59h-617v213h521v95h-526v59h595z" />
<glyph unicode="&#xb3ce;" d="M420 374v97h-258v280h583v-60h-514v-160h519v-60h-260v-97h385v-60h-840v60h385zM488 -140v366h281v-366h-281zM421 226v-211h-213v-96h58q19 0 42 1t47 2.5t46 3.5t39 4l5 -58q-38 -5 -89.5 -8.5t-102.5 -3.5h-111v212h213v95h-218v59h284zM554 167v-248h149v248h-149z " />
<glyph unicode="&#xb3d0;" d="M420 373v97h-258v281h583v-60h-514v-161h519v-60h-260v-97h385v-60h-840v60h385zM422 227v-211h-213v-96h58q19 0 42 1t47 2.5t46 3.5t39 4l5 -59q-38 -5 -89.5 -8.5t-102.5 -3.5h-111v214h213v93h-218v60h284zM636 22q-5 -13 -24 -38t-45 -54q-15 -17 -33.5 -37 t-37.5 -40l-46 44q19 19 38.5 39t43.5 47q21 24 35 43t21.5 37t10.5 38.5t3 48.5v84h68v-84q0 -29 3 -49.5t10.5 -38.5t21 -36.5t34.5 -42.5q24 -27 43.5 -47t38.5 -39l-45 -44q-19 20 -37.5 40t-33.5 37q-26 30 -45 54.5t-24 37.5z" />
<glyph unicode="&#xb3d4;" d="M158 174h594v-308h-594v308zM745 681h-514v-175h519v-60h-260v-111h385v-60h-840v60h385v111h-258v295h583v-60zM226 -71h458v182h-458v-182z" />
<glyph unicode="&#xb3d5;" d="M753 213v-347h-596v347h69v-110h458v110h69zM745 686h-514v-172h519v-60h-260v-112h385v-60h-840v60h385v112h-258v292h583v-60zM684 -71v112h-458v-112h458z" />
<glyph unicode="&#xb3d7;" d="M745 681h-514v-179h519v-60h-260v-125h385v-60h-840v60h385v125h-258v299h583v-60zM455 30q-8 -17 -33 -33.5t-51 -30.5q-63 -32 -122 -57.5t-113 -46.5l-29 55q62 23 116 46t102 47q27 14 45.5 25.5t29.5 26.5t15.5 36t4.5 53v52h70v-52q0 -32 4.5 -53t15.5 -36 t29.5 -26.5t45.5 -25.5q48 -24 102 -47t116 -46l-29 -55q-54 21 -113 46.5t-122 57.5q-26 14 -51 30.5t-33 33.5z" />
<glyph unicode="&#xb3d9;" d="M455 194q56 0 107.5 -10t90.5 -30.5t62.5 -50.5t23.5 -69v-34q0 -39 -23.5 -69t-62.5 -50.5t-90.5 -30.5t-107.5 -10t-107.5 10t-90.5 30.5t-62.5 50.5t-23.5 69v34q0 40 23.5 70t62.5 50t90.5 30t107.5 10zM420 327v115h-258v299h583v-60h-514v-179h519v-60h-260v-115 h385v-60h-840v60h385zM455 -100q40 0 79 7t69.5 20t49 32.5t18.5 44.5v26q0 25 -18.5 44.5t-49 32.5t-69.5 20t-79 7q-41 0 -79.5 -7t-69 -20t-49 -32.5t-18.5 -44.5v-26q0 -25 18.5 -44.5t49 -32.5t69 -20t79.5 -7z" />
<glyph unicode="&#xb3db;" d="M420 371v101h-258v279h583v-60h-514v-159h519v-60h-260v-101h385v-60h-840v60h385zM489 172h275v-61h-275v-9q0 -20 5 -35.5t17 -29.5t32.5 -26.5t51.5 -25.5q42 -17 91 -35t96 -33l-25 -55q-44 14 -90.5 32t-91.5 36q-48 20 -78 39.5t-42 40.5q-12 -21 -42 -40.5 t-78 -39.5q-45 -18 -91.5 -36t-90.5 -32l-25 55q47 15 96 33t91 35q31 13 51.5 25.5t32.5 26.5t17 29.5t5 35.5v9h-275v61h275v94h68v-94z" />
<glyph unicode="&#xb3dd;" d="M420 376v97h-258v278h583v-60h-514v-158h519v-60h-260v-97h385v-60h-840v60h385zM155 223h600v-61h-530v-89h521v-60h-521v-91h547v-61h-617v362z" />
<glyph unicode="&#xb3e0;" d="M545 333h-190v-206q78 3 141 7t127 12l6 -61q-62 -6 -119 -10.5t-123.5 -7.5t-150 -4t-198.5 -1v62h132.5t113.5 2v207h-189v366h447v-63h-376v-240h379v-63zM764 420h145v-63h-145v-493h-71v914h71v-358z" />
<glyph unicode="&#xb3e4;" d="M623 240q-46 -6 -101 -10t-125.5 -7t-159.5 -4.5t-203 -1.5v62h133.5t112.5 1v142h-180v312h435v-62h-365v-188h368v-62h-188v-140q85 2 148 6.5t119 10.5zM757 479h137v-63h-137v-322h-70v684h70v-299zM263 -63h519v-62h-590v251h71v-189z" />
<glyph unicode="&#xb3e8;" d="M757 227v-212h-508v-96h535v-59h-604v213h508v95h-513v59h582zM623 336q-46 -6 -101 -10t-125.5 -7t-159.5 -4.5t-203 -1.5v61h133.5t112.5 1v105h-180v264h435v-62h-365v-140h368v-62h-188v-103q85 2 148 6.5t119 10.5zM757 573h137v-62h-137v-230h-70v497h70v-205z" />
<glyph unicode="&#xb3fc;" d="M656 414h115v364h70v-914h-70v490h-115v-465h-70v873h70v-348zM539 97q-51 -3 -102.5 -5.5t-110 -3.5t-126.5 -1.5t-151 -0.5v61h206v190h-160v356h384v-62h-314v-232h318v-62h-158v-189q53 2 102.5 3.5t108.5 5.5z" />
</font>
</defs>
</svg>
